Loading...
Error

(Pop Jazz, Smooth Jazz) Rick Braun - Around The Horn (2017) [FLAC (Image+.CUE), lossless]

Статистика раздачи
Размер:  442 MB   |    Зарегистрирован:  1 год   |    Скачан:  7 раз

Полного источника не было: 3 дня

Сидов:  0  |  0 KB/s  ]   Личеров:  0  |  0 KB/s  ]

* - сиды/пиры с внешних источников

   
 
Автор Сообщение

Darkferse Пол:Жен

30-Апр-2017 19:36

Rick Braun - Around The Horn

Жанр: Pop Jazz, Smooth Jazz
Год выпуска: 2017
Источник: CD
Производитель: Time Blues
Аудиокодек: FLAC
Тип рипа: Image+.CUE
Битрейт: lossless
Продолжительность: 00:52:19

Треклист:

01. So Strong
02. Pool Dancer
03. Love Take Me
04. We Don't Talk Anymore
05. Everything Is Alright
06. In Common
07. I Love You More
08. Around The Horn
09. Vila Vita
10. Yellow
11. One South Beach Night

Код:

Exact Audio Copy V1.1 from 23. June 2015

Отчёт EAC об извлечении, выполненном 7. апреля 2017, 17:19

Rick Braun / Around The Horn

Дисковод: _NEC    DVD_RW ND-4570A   Adapter: 1  ID: 0

Режим чтения                 : Достоверность
Использование точного потока : Да
Отключение кэша аудио        : Да
Использование указателей C2  : Нет

Коррекция смещения при чтении                     : 48
Способность читать области Lead-in и Lead-out     : Нет
Заполнение пропущенных сэмплов тишиной            : Да
Удаление блоков с тишиной в начале и конце        : Нет
При вычислениях CRC использовались нулевые сэмплы : Да
Интерфейс                                         : Встроенный Win32-интерфейс для Win NT/2000

Выходной формат          : Пользовательский кодировщик
Выбранный битрейт        : 768 kBit/s
Качество                 : Высокий
Добавление ID3-тега      : Нет
Утилита сжатия           : C:\Program Files\Exact Audio Copy\FLAC\FLAC.EXE
Дополнительные параметры : -6 -V -T "ARTIST=%artist%" -T "TITLE=%title%" -T "ALBUM=%albumtitle%" -T "DATE=%year%" -T "TRACKNUMBER=%tracknr%" -T "GENRE=%genre%" -T "COMMENT=%comment%" -T "BAND=%albuminterpret%" -T "ALBUMARTIST=%albuminterpret%" -T "COMPOSER=%composer%" %haslyrics%--tag-from-file=LYRICS="%lyricsfile%"%haslyrics% -T "DISCNUMBER=%cdnumber%" -T "TOTALDISCS=%totalcds%" -T "TOTALTRACKS=%numtracks%" %hascover%--picture="%coverfile%"%hascover% %source% -o %dest%

TOC извлечённого CD

     Трек |   Старт  | Длительность | Начальный сектор | Конечный сектор
    ---------------------------------------------------------------------
       1  |  0:00.00 |    5:03.15   |           0      |      22739
       2  |  5:03.15 |    4:20.45   |       22740      |      42284
       3  |  9:23.60 |    5:16.26   |       42285      |      66010
       4  | 14:40.11 |    4:03.08   |       66011      |      84243
       5  | 18:43.19 |    4:38.30   |       84244      |     105123
       6  | 23:21.49 |    4:22.11   |      105124      |     124784
       7  | 27:43.60 |    5:10.14   |      124785      |     148048
       8  | 32:53.74 |    4:57.67   |      148049      |     170390
       9  | 37:51.66 |    4:26.08   |      170391      |     190348
      10  | 42:17.74 |    4:48.24   |      190349      |     211972
      11  | 47:06.23 |    5:10.36   |      211973      |     235258

Характеристики диапазона извлечения и сообщения об ошибках

Выбранный диапазон

     Имя файла D:\New Uploads 01.12.2016\Rick Braun - Around The Horn - 2017  52'19''\Rick Braun - Around The Horn.wav

     Пиковый уровень 99.9 %
     Скорость извлечения 7.1 X
     Качество диапазона 100.0 %
     CRC теста 577AE8E0
     CRC копии 577AE8E0
     Копирование... OK

Ошибок не произошло

Конец отчёта

---- CUETools DB Plugin V2.1.6

[CTDB TOCID: nsmPDMnnUXs56OfgQrnqsoUpzIQ-] found
Submit result: nsmPDMnnUXs56OfgQrnqsoUpzIQ- has been confirmed
Track | CTDB Status
  1   | (12/12) Accurately ripped
  2   | (12/12) Accurately ripped
  3   | (12/12) Accurately ripped
  4   | (12/12) Accurately ripped
  5   | (12/12) Accurately ripped
  6   | (12/12) Accurately ripped
  7   | (12/12) Accurately ripped
  8   | (12/12) Accurately ripped
  9   | (12/12) Accurately ripped
 10   | (12/12) Accurately ripped
 11   | (12/12) Accurately ripped

==== Контрольная сумма отчёта 81DD1FB804A169F8BD6FCB1E2FF62A6D1F579D6865680F79EB828B44924B717E ====

Код:

REM GENRE "Smooth Jazz"
REM DATE 2017
REM DISCID 9A0C400B
REM COMMENT "ExactAudioCopy v1.1"
PERFORMER "Rick Braun"
TITLE "Around The Horn"
FILE "Rick Braun - Around The Horn.flac" WAVE
  TRACK 01 AUDIO
    TITLE "So Strong"
    PERFORMER "Rick Braun"
    INDEX 01 00:00:00
  TRACK 02 AUDIO
    TITLE "Pool Dancer"
    PERFORMER "Rick Braun"
    INDEX 01 05:03:15
  TRACK 03 AUDIO
    TITLE "Love Take Me"
    PERFORMER "Rick Braun"
    INDEX 01 09:23:60
  TRACK 04 AUDIO
    TITLE "We Don't Talk Anymore"
    PERFORMER "Rick Braun"
    INDEX 01 14:40:11
  TRACK 05 AUDIO
    TITLE "Everything Is Alright"
    PERFORMER "Rick Braun"
    INDEX 01 18:43:19
  TRACK 06 AUDIO
    TITLE "In Common"
    PERFORMER "Rick Braun"
    INDEX 01 23:21:49
  TRACK 07 AUDIO
    TITLE "I Love You More"
    PERFORMER "Rick Braun"
    INDEX 01 27:43:60
  TRACK 08 AUDIO
    TITLE "Around The Horn"
    PERFORMER "Rick Braun"
    INDEX 01 32:53:74
  TRACK 09 AUDIO
    TITLE "Vila Vita"
    PERFORMER "Rick Braun"
    INDEX 01 37:51:66
  TRACK 10 AUDIO
    TITLE "Yellow"
    PERFORMER "Rick Braun"
    INDEX 01 42:17:74
  TRACK 11 AUDIO
    TITLE "One South Beach Night"
    PERFORMER "Rick Braun"
    INDEX 01 47:06:23

Этот торрент недоступен для скачивания без регистрации, однако доступен по публичной magnet-ссылке (источники с публичных трекеров). Перед использованием ссылки прочтите, пожалуйста Пользовательское соглашение, а также как можно дольше оставайтесь на раздаче! Для того, чтобы скачать сам торрент-файл (который видит больше источников), а также для того, чтобы поблагодарить релизера, вам необходимо зарегистрироваться. Если регистрироваться лень - вы можете также попробовать скачать релиз по нашим партнерским ссылкам ниже. Кроме того, зарегистрированным пользователям не показывается всплывающая реклама при скачивании.

[underverse.me].t81993.torrent
Трекер: Зарегистрирован   [ 30.04.2017 19:36 ]  

Статус: проверено (by Бишеп at 01.05.2017 06:19)
Поблагодарили: пока никто не поблагодарил...
Тип торрента: публичный - доступные источники с открытых трекеров: 
Размер: 442 MB (занимает 0,1 DVDR, для записи нужно 1 болванка DVDR/RW)
 
 

Яндекс.Метрика powered by Sphinx


В Н И М А Н И Е
Сайт не распространяет и не хранит электронные версии произведений, а лишь бесплатно и без коммерческой выгоды (не требуя взамен платы,
SMS и т.д.) предоставляет доступ к создаваемому пользователями каталогу ссылок на торрент-файлы, которые содержат только списки хеш-сумм.
Убедительная просьба с жалобами обращаться напрямую к пользователю, разместившему торрент файл.

Вверх