Loading...
Error

Обитель зла: Последняя глава / Resident Evil: The Final Chapter (Пол У. С. Андерсон) [2016 г., ужасы, фантастика, боевик, триллер, BD-Remux] Dub (iTunes) + Original + Sub

Статистика раздачи
Размер:  18,78 GB   |    Зарегистрирован:  1 год   |    Скачан:  14 раз

Полного источника не было: 4 дня

Сидов:  0  |  0 KB/s  ]   Личеров:  0  |  0 KB/s  ]

* - сиды/пиры с внешних источников

   
 
Автор Сообщение

makkol Пол:Муж

27-Апр-2017 13:41

Обитель зла: Последняя глава / Resident Evil: The Final Chapter


Год выпуска: 2016
Жанр: ужасы, фантастика, боевик, триллер
Производство: Франция , Германия , Канада , Австралия [Capcom Entertainment, Impact Pictures, Screen Gems]
Режиссер: Пол У. С. Андерсон
В ролях: Милла Йовович, Иэн Глен, Эли Лартер, Шон Робертс, Оуэн Мэкен, Фрайзер Джеймс, Руби Роуз, Уильям Леви, Рола, Эвер Андерсон
Сюжет фильма:
Действия фильма разворачиваются с того момента, на котором закончилась предыдущая часть. После того как Вескер предал Элис в Вашингтоне, конец истории человечества стал еще ближе. Элис — последняя надежда на спасение мира. Она должна вернуться к точке отсчета, туда, где все и началось — город Раккун-Сити, где корпорация «Амбрелла» готовится к финальной атаке по тем, кому удалось выжить. В гонке со временем Элис вооружится до зубов и объединится с друзьями и теми, кого не ожидала увидеть в роли своих союзников. Вместе они будут биться против армии мертвецов и новых чудовищных мутантов. Находясь под угрозой потери своих способностей и готовясь к неминуемой атаке корпорации, Элис столкнется с еще более трудными проблемами, а человечество тем временем будет находиться на грани гибели.

  • Мировая премьера: 13 декабря 2016
  • Российская премьера: 10 февраля 2017


Качество видео: BD-Remux

Продолжительность: 01:47:02
Формат: MKV
Видео: MPEG-4 AVC, 1920x1080 (16:9), 23.976 fps, 21.7 Mbps
Аудио #1: русский, дублированный (iTunes), AC3 5.1, 48 kHz, 384 kbps
Аудио #2: английский, оригинал, DTS-HD MA 7.1, 48 kHz, 3072 kbps
Субтитры: русские (forced, full), английские вшитые отключаемые

Код:

Format : Matroska
Format version : Version 4 / Version 2
File size : 18.8 GiB
Duration : 1 h 46 min
Overall bit rate mode : Variable
Overall bit rate : 25.2 Mb/s
Encoded date : UTC 2017-04-27 01:15:43
Writing application : mkvmerge v11.0.0 ('Alive') 64bit
Writing library : libebml v1.3.4 + libmatroska v1.4.5

Video
ID : 1
Format : AVC
Format/Info : Advanced Video Codec
Format profile : High@L4.1
Format settings, CABAC : Yes
Format settings, ReFrames : 2 frames
Format settings, GOP : M=1, N=10
Codec ID : V_MPEG4/ISO/AVC
Duration : 1 h 46 min
Bit rate mode : Variable
Bit rate : 21.7 Mb/s
Width : 1 920 pixels
Height : 1 080 pixels
Display aspect ratio : 16:9
Frame rate mode : Constant
Frame rate : 23.976 (24000/1001) FPS
Color space : YUV
Chroma subsampling : 4:2:0
Bit depth : 8 bits
Scan type : Progressive
Bits/(Pixel*Frame) : 0.437
Stream size : 16.2 GiB (86%)
Language : English
Default : Yes
Forced : No

Audio #1
ID : 2
Format : AC-3
Format/Info : Audio Coding 3
Format settings, Endianness : Big
Codec ID : A_AC3
Duration : 1 h 46 min
Bit rate mode : Constant
Bit rate : 384 kb/s
Channel(s) : 6 channels
Channel positions : Front: L C R, Side: L R, LFE
Sampling rate : 48.0 kHz
Frame rate : 31.250 FPS (1536 spf)
Bit depth : 16 bits
Compression mode : Lossy
Stream size : 293 MiB (2%)
Title : iTunes
Language : Russian
Service kind : Complete Main
Default : Yes
Forced : No

Audio #2
ID : 3
Format : DTS
Format/Info : Digital Theater Systems
Format profile : MA / Core
Mode : 16
Format settings, Endianness : Big
Codec ID : A_DTS
Duration : 1 h 46 min
Bit rate mode : Variable / Constant
Bit rate : 3 072 kb/s / 1 509 kb/s
Channel(s) : 8 channels / 6 channels
Channel positions : Front: L C R, Side: L R, Back: L R, LFE / Front: L C R, Side: L R, LFE
Sampling rate : 48.0 kHz
Frame rate : 93.750 FPS (512 spf)
Bit depth : 16 bits
Compression mode : Lossless / Lossy
Stream size : 2.30 GiB (12%)
Title : Original
Language : English
Default : No
Forced : No

Text #1
ID : 4
Format : UTF-8
Codec ID : S_TEXT/UTF8
Codec ID/Info : UTF-8 Plain Text
Duration : 1 h 45 min
Bit rate : 1 b/s
Count of elements : 15
Stream size : 926 Bytes (0%)
Title : Forced
Language : Russian
Default : Yes
Forced : No

Text #2
ID : 5
Format : UTF-8
Codec ID : S_TEXT/UTF8
Codec ID/Info : UTF-8 Plain Text
Duration : 1 h 38 min
Bit rate : 50 b/s
Count of elements : 735
Stream size : 36.4 KiB (0%)
Title : Full
Language : Russian
Default : No
Forced : No

Text #3
ID : 6
Format : UTF-8
Codec ID : S_TEXT/UTF8
Codec ID/Info : UTF-8 Plain Text
Duration : 1 h 45 min
Bit rate : 31 b/s
Count of elements : 818
Stream size : 24.3 KiB (0%)
Title : Full
Language : English
Default : No
Forced : No

Menu
00:00:00.000 : en:Chapter 01
00:05:39.339 : en:Chapter 02
00:11:18.177 : en:Chapter 03
00:17:00.102 : en:Chapter 04
00:22:36.146 : en:Chapter 05
00:27:21.640 : en:Chapter 06
00:33:38.474 : en:Chapter 07
00:40:47.820 : en:Chapter 08
00:46:36.126 : en:Chapter 09
00:53:18.778 : en:Chapter 10
01:03:18.669 : en:Chapter 11
01:10:47.826 : en:Chapter 12
01:15:37.574 : en:Chapter 13
01:22:57.806 : en:Chapter 14
01:28:32.765 : en:Chapter 15
01:35:07.159 : en:Chapter 16
Релиз:

picpicpicpicpic
Для увеличения картинки щелкните мышкой по превью

Этот торрент недоступен для скачивания без регистрации, однако доступен по публичной magnet-ссылке (источники с публичных трекеров). Перед использованием ссылки прочтите, пожалуйста Пользовательское соглашение, а также как можно дольше оставайтесь на раздаче! Для того, чтобы скачать сам торрент-файл (который видит больше источников), а также для того, чтобы поблагодарить релизера, вам необходимо зарегистрироваться. Если регистрироваться лень - вы можете также попробовать скачать релиз по нашим партнерским ссылкам ниже. Кроме того, зарегистрированным пользователям не показывается всплывающая реклама при скачивании.

[underverse.me].t81831.torrent
Трекер: Зарегистрирован   [ 27.04.2017 13:41 ]  

Статус: T временная (by makkol at 27.04.2017 13:42)
Поблагодарили: пока никто не поблагодарил...
Тип торрента: публичный - доступные источники с открытых трекеров: 
Размер: 18,78 GB (занимает 4,29 DVDR, для записи нужно 5 болванок DVDR/RW)
 
 
Похожие темы
Форум Тема Автор Торрент Отв. Посл. сооб.
Зарубежное кино [DVDRip, Low-Res HDRip, и т.д.] Обитель зла: Возмездие / Resident Evil: Retribution (Пол У. С. Андерсон) [2012 г., ужасы, фантастика, боевик, триллер, BDRip-AVC] Dub + Original Garnett
3 | 1

0 | 988

20

07.12.2012 13:18

Зарубежное кино [DVDRip, Low-Res HDRip, и т.д.] Обитель Зла: Возмездие / Resident Evil: Retribution (Пол У. С. Андерсон) [2012, ужасы, фантастика, боевик, триллер, BDRip] Dub + Original Eng + Subs Garnett
6 | 0

0 | 931

24

08.12.2012 09:41

Зарубежное кино [DVDRip, Low-Res HDRip, и т.д.] Обитель зла. Пенталогия / Resident Evil. Pentalogy (Пол У. С. Андерсон) [2002–2012 г., Ужасы, фантастика, боевик, триллер, BDRip-AVC] luis5
0 | 0

2 | 2713

86

11.08.2014 05:12

T Зарубежное кино [DVDRip, Low-Res HDRip, и т.д.] Обитель зла: Последняя глава / Resident Evil: The Final Chapter (Пол У. С. Андерсон) [2016 г., ужасы, фантастика, боевик, триллер, WEBRip] Dub (звук с TS) makkol
22 | 4

0 | 1176

33

27.02.2017 21:41

T Зарубежное кино [DVDRip, Low-Res HDRip, и т.д.] Обитель зла: Последняя глава / Resident Evil: The Final Chapter (Пол У. С. Андерсон / Paul W.S. Anderson) [2016 г., ужасы, фантастика, боевик, триллер, WEBRip] MVO + hardsub (Kor) 90ytr90
11 | 4

0 | 1210

27

02.03.2017 18:18

T Зарубежное кино [DVDRip, Low-Res HDRip, и т.д.] Обитель зла: Последняя глава / Resident Evil: The Final Chapter (Пол У. С. Андерсон) [2016 г., ужасы, фантастика, боевик, триллер, WEB-DLRip] Dub (Line) makkol
22 | 0

0 | 656

13

14.03.2017 21:17

T Зарубежное кино [DVDRip, Low-Res HDRip, и т.д.] Обитель зла: Последняя глава / Resident Evil: The Final Chapter (Пол У. С. Андерсон / Paul W.S. Anderson) [2016 г., ужасы, фантастика, боевик, триллер, WEB-DLRip] VO (Solod) + hardsub (Chi) 90ytr90
1 | 3

0 | 487

10

15.03.2017 10:54

T Зарубежное кино [DVDRip, Low-Res HDRip, и т.д.] Обитель зла: Последняя глава / Resident Evil: The Final Chapter (Пол У. С. Андерсон / Paul W.S. Anderson) [2016 г., ужасы, фантастика, боевик, триллер, WEB-DLRip] VO (Solod) + hardsub (Chi) 90ytr90
2 | 4

0 | 573

5

15.03.2017 18:00

T Зарубежное кино [DVDRip, Low-Res HDRip, и т.д.] Обитель зла: Последняя глава / Resident Evil: The Final Chapter (Пол У. С. Андерсон) [2016 г., ужасы, фантастика, боевик, триллер, HDRip] Dub (Line) + Original makkol
0 | 0

0 | 589

9

23.03.2017 21:28

T Зарубежное кино [DVDRip, Low-Res HDRip, и т.д.] Обитель зла: Последняя глава / Resident Evil: The Final Chapter (Пол У. С. Андерсон) [2016 г., ужасы, фантастика, боевик, триллер, HDRip] Dub (Line) makkol
6 | 0

0 | 554

19

23.03.2017 21:35


Яндекс.Метрика powered by Sphinx


В Н И М А Н И Е
Сайт не распространяет и не хранит электронные версии произведений, а лишь бесплатно и без коммерческой выгоды (не требуя взамен платы,
SMS и т.д.) предоставляет доступ к создаваемому пользователями каталогу ссылок на торрент-файлы, которые содержат только списки хеш-сумм.
Убедительная просьба с жалобами обращаться напрямую к пользователю, разместившему торрент файл.

Вверх