Loading...
Error

Каникулы Пипо / Materske znamienko / Pipo Schafft Alle / Ferien mit Silvo (1-7 серии из 7) (Марта Гогалова) [1985 г., детский, семейный, мини-сериал, TVRip] AVO (Муравский) + Ger (Dub)

Статистика раздачи
Размер:  2,65 GB   |    Зарегистрирован:  10 месяцев   |    Скачан:  1 раз
Сидов:  1  |  0 KB/s  ]   Личеров:  0  |  0 KB/s  ]

* - сиды/пиры с внешних источников

   
 
Автор Сообщение

makkol Пол:Муж

15-Апр-2017 13:04

Каникулы Пипо / Materské znamienko / Pipo Schafft Alle / Ferien mit Silvo


Год выпуска: 1985
Жанр: детский, семейный, мини-сериал
Производство: Чехословакия [Czechoslovak Television Bratislava]
Режиссер: Марта Гогалова
В ролях: Юзеф Врабель, Андрей Белак, Иван Гогаль, Жан Грешшо, Микулаш Хуба, Любомир Компаник, Ивета Кожкова, Жан Кронер, Зофия Мартисова, Любомир Паулович, Магда Павелекова, Эмилия Вашариова, Вильям Полоньи
Сюжет фильма:
Братиславский школьник Томаш по прозвищу Пипо берет с собой сеттера Сильво и едет с ним на каникулы к дедушке Зираку. Там он встречает Мароша и Катку, ребят из детского дома. Хотя Пипо и Марош для начала не нашли ничего лучше чем подраться, вскоре они стали лучшими друзьями и пережили вместе не одно приключение...

Качество видео: TVRip

Продолжительность: 7 x ~00:30:00
Формат: AVI
Видео: XviD, 672x512 (4:3), 25.000 fps, ~1400 kbps
Аудио #1: русский, авторский одноголосый закадровый (Юрий Муравский), MP3 2.0, 48 kHz, 192 kbps
Аудио #2: немецкий, дублированный, MP3 2.0, 48 kHz, 192 kbps

Код:

Формат                                   : AVI
Формат/Информация                        : Audio Video Interleave
Размер файла                             : 395 Мбайт
Продолжительность                        : 29 м.
Общий поток                              : 1852 Кбит/сек
Программа кодирования                    : VirtualDubModRus 1.5.10.2 (build 2542/release)
Библиотека кодирования                   : VirtualDubMod build 2542/release

Видео
Идентификатор                            : 0
Формат                                   : MPEG-4 Visual
Профиль формата                          : Advanced Simple@L5
Параметр BVOP формата                    : 2
Параметр QPel формата                    : Нет
Параметр GMC формата                     : Без точки перехода
Параметр матрицы формата                 : Default (H.263)
Режим смешивания                         : Сжатый битовый поток
Идентификатор кодека                     : XVID
Идентификатор кодека/Подсказка           : XviD
Продолжительность                        : 29 м.
Битрейт                                  : 1453 Кбит/сек
Ширина                                   : 672 пикселя
Высота                                   : 512 пикселей
Соотношение сторон                       : 4:3
Частота кадров                           : 25,000 кадров/сек
Цветовое пространство                    : YUV
Субдискретизация насыщенности            : 4:2:0
Битовая глубина                          : 8 бит
Тип развёртки                            : Прогрессивная
Метод сжатия                             : С потерями
Бит/(Пиксели*Кадры)                      : 0.169
Размер потока                            : 310 Мбайт (78%)
Библиотека кодирования                   : XviD 1.0.3 (UTC 2004-12-20)

Аудио #1
Идентификатор                            : 1
Формат                                   : MPEG Audio
Версия формата                           : Version 1
Профиль формата                          : Layer 3
Режим                                    : Joint stereo
Идентификатор кодека                     : 55
Идентификатор кодека/Подсказка           : MP3
Продолжительность                        : 29 м.
Вид битрейта                             : Постоянный
Битрейт                                  : 192 Кбит/сек
Каналы                                   : 2 канала
Частота                                  : 48,0 КГц
Метод сжатия                             : С потерями
Размер потока                            : 40,9 Мбайт (10%)
Выравнивание                             : Соединение по промежуткам
Продолжительность промежутка             : 40  мс. (1,00 видеокадр)
Время предзагрузки промежутка            : 504  мс.

Аудио #2
Идентификатор                            : 2
Формат                                   : MPEG Audio
Версия формата                           : Version 1
Профиль формата                          : Layer 3
Режим                                    : Joint stereo
Расширение режима                        : MS Stereo
Идентификатор кодека                     : 55
Идентификатор кодека/Подсказка           : MP3
Продолжительность                        : 29 м.
Вид битрейта                             : Постоянный
Битрейт                                  : 192 Кбит/сек
Каналы                                   : 2 канала
Частота                                  : 48,0 КГц
Метод сжатия                             : С потерями
Размер потока                            : 40,9 Мбайт (10%)
Выравнивание                             : Соединение по промежуткам
Продолжительность промежутка             : 40  мс. (1,00 видеокадр)
Время предзагрузки промежутка            : 504  мс.
Библиотека кодирования                   : LAME3.99r
Настройки программы                      : -m j -V 4 -q 3 -lowpass 18.6 -b 192
picpicpicpicpic
Для увеличения картинки щелкните мышкой по превью

Этот торрент недоступен для скачивания без регистрации, однако доступен по публичной magnet-ссылке (источники с публичных трекеров). Перед использованием ссылки прочтите, пожалуйста Пользовательское соглашение, а также как можно дольше оставайтесь на раздаче! Для того, чтобы скачать сам торрент-файл (который видит больше источников), а также для того, чтобы поблагодарить релизера, вам необходимо зарегистрироваться. Если регистрироваться лень - вы можете также попробовать скачать релиз по нашим партнерским ссылкам ниже. Кроме того, зарегистрированным пользователям не показывается всплывающая реклама при скачивании.

[underverse.me].t81248.torrent
Трекер: Зарегистрирован   [ 15.04.2017 13:04 ]  

Статус: проверено (by makkol at 15.04.2017 13:04)
Поблагодарили: пока никто не поблагодарил...
Тип торрента: публичный - доступные источники с открытых трекеров: 
Размер: 2,65 GB (занимает 0,61 DVDR, для записи нужно 1 болванка DVDR/RW)
 
 

Яндекс.Метрика powered by Sphinx


В Н И М А Н И Е
Сайт не распространяет и не хранит электронные версии произведений, а лишь бесплатно и без коммерческой выгоды (не требуя взамен платы,
SMS и т.д.) предоставляет доступ к создаваемому пользователями каталогу ссылок на торрент-файлы, которые содержат только списки хеш-сумм.
Убедительная просьба с жалобами обращаться напрямую к пользователю, разместившему торрент файл.

Вверх