Loading...
Error

(Industrial, Ambient) Girnu Giesmes - Tiems, Kas Budi Uz Slenkscio (2006) [FLAC (Image+.CUE), lossless]

Статистика раздачи
Размер:  239 MB   |    Зарегистрирован:  1 год 1 месяц   |    Скачан:  0 раз

Полного источника не было: 1 год

Сидов:  0  |  0 KB/s  ]   Личеров:  0  |  0 KB/s  ]

* - сиды/пиры с внешних источников

   
 
Автор Сообщение

Darkferse Пол:Жен

12-Апр-2017 20:30

Girnų Giesmės - Tiems, Kas Budi Už Slenksčio

Жанр: Industrial, Ambient
Год выпуска: 2006
Источник: CD
Производитель: Autarkeia - ACD 014
Аудиокодек: FLAC
Тип рипа: Image+.CUE
Битрейт: lossless
Продолжительность: 00:48:27

Треклист:

1. Negilus Miegas 8:16
2. Vos Matomi 6:24
3. Tiems, Kas Supasi Naktyje 5:02
4. Svaigalai Su Ornamentais 6:51
5. Sklindantis Kailiu 7:18
6. Budintys Po Žeme 1:08
7. Šaltinio Dugne Spindi 5:34
8. Bundam Į Puotą 7:49

Код:

Exact Audio Copy V1.0 beta 3 from 29. August 2011

Отчёт EAC об извлечении, выполненном 11. апреля 2017, 19:16

Girnų Giesmės / Tiems, Kas Budi Už Slenksčio

Дисковод: TSSTcorpCDDVDW SH-222BB   Adapter: 3  ID: 2

Режим чтения                 : Достоверность
Использование точного потока : Да
Отключение кэша аудио        : Да
Использование указателей C2  : Нет

Коррекция смещения при чтении                     : 6
Способность читать области Lead-in и Lead-out     : Нет
Заполнение пропущенных сэмплов тишиной            : Да
Удаление блоков с тишиной в начале и конце        : Нет
При вычислениях CRC использовались нулевые сэмплы : Да
Интерфейс                                         : Встроенный Win32-интерфейс для Win NT/2000

Выходной формат          : Пользовательский кодировщик
Выбранный битрейт        : 128 kBit/s
Качество                 : Высокий
Добавление ID3-тега      : Нет
Утилита сжатия           : C:\Program Files\Exact Audio Copy\Flac\flac.exe
Дополнительные параметры : -V -8 %source%

TOC извлечённого CD

     Трек |   Старт  | Длительность | Начальный сектор | Конечный сектор
    ---------------------------------------------------------------------
       1  |  0:00.00 |    8:16.13   |           0      |      37212
       2  |  8:16.13 |    6:24.40   |       37213      |      66052
       3  | 14:40.53 |    5:02.67   |       66053      |      88769
       4  | 19:43.45 |    6:51.47   |       88770      |     119641
       5  | 26:35.17 |    7:18.14   |      119642      |     152505
       6  | 33:53.31 |    1:08.42   |      152506      |     157647
       7  | 35:01.73 |    5:34.00   |      157648      |     182697
       8  | 40:35.73 |    7:49.04   |      182698      |     217876

Характеристики диапазона извлечения и сообщения об ошибках

Выбранный диапазон

     Имя файла D:\Music\Girnų Giesmės - Tiems, Kas Budi Už Slenksčio 2006\Girnų Giesmės - Tiems, Kas Budi Už Slenksčio.wav

     Пиковый уровень 99.9 %
     Скорость извлечения 2.8 X
     Качество диапазона 99.9 %
     CRC теста 3D032D45
     CRC копии 3D032D45
     Копирование... OK

Ошибок не произошло

AccurateRip: сводка

Трек  1  отсутствует в базе данных
Трек  2  отсутствует в базе данных
Трек  3  отсутствует в базе данных
Трек  4  отсутствует в базе данных
Трек  5  отсутствует в базе данных
Трек  6  отсутствует в базе данных
Трек  7  отсутствует в базе данных
Трек  8  отсутствует в базе данных

Ни одного трека нет в базе AccurateRip

Конец отчёта

==== Контрольная сумма отчёта 4B7AFA6C9383F3930A921C86C297118F5C861096378CE42EAE795DA2B7657658 ====

Код:

REM GENRE Industrial
REM DATE 2006
REM DISCID 6E0B5908
REM COMMENT "ExactAudioCopy v1.0b3"
PERFORMER "Girnu Giesmes"
TITLE "Tiems, Kas Budi Uz Slenkscio"
FILE "Girnu Giesmes - Tiems, Kas Budi Uz Slenkscio.flac" WAVE
  TRACK 01 AUDIO
    TITLE "Negilus Miegas"
    PERFORMER "Girnu Giesmes"
    INDEX 01 00:00:00
  TRACK 02 AUDIO
    TITLE "Vos Matomi"
    PERFORMER "Girnu Giesmes"
    INDEX 00 08:13:43
    INDEX 01 08:16:13
  TRACK 03 AUDIO
    TITLE "Tiems, Kas Supasi Naktyje"
    PERFORMER "Girnu Giesmes"
    INDEX 01 14:40:53
  TRACK 04 AUDIO
    TITLE "Svaigalai Su Ornamentais"
    PERFORMER "Girnu Giesmes"
    INDEX 01 19:43:45
  TRACK 05 AUDIO
    TITLE "Sklindantis Kailiu"
    PERFORMER "Girnu Giesmes"
    INDEX 01 26:35:17
  TRACK 06 AUDIO
    TITLE "Budintys Po Zeme"
    PERFORMER "Girnu Giesmes"
    INDEX 01 33:53:31
  TRACK 07 AUDIO
    TITLE "Saltinio Dugne Spindi"
    PERFORMER "Girnu Giesmes"
    INDEX 01 35:01:73
  TRACK 08 AUDIO
    TITLE "Bundam I Puota"
    PERFORMER "Girnu Giesmes"
    INDEX 01 40:35:73

Этот торрент недоступен для скачивания без регистрации, однако доступен по публичной magnet-ссылке (источники с публичных трекеров). Перед использованием ссылки прочтите, пожалуйста Пользовательское соглашение, а также как можно дольше оставайтесь на раздаче! Для того, чтобы скачать сам торрент-файл (который видит больше источников), а также для того, чтобы поблагодарить релизера, вам необходимо зарегистрироваться. Если регистрироваться лень - вы можете также попробовать скачать релиз по нашим партнерским ссылкам ниже. Кроме того, зарегистрированным пользователям не показывается всплывающая реклама при скачивании.

[underverse.me].t81117.torrent
Трекер: Зарегистрирован   [ 12.04.2017 20:30 ]  

Статус: проверено (by Бишеп at 13.04.2017 05:08)
Поблагодарили: пока никто не поблагодарил...
Тип торрента: публичный - доступные источники с открытых трекеров: 
Размер: 239 MB (занимает 0,05 DVDR, для записи нужно 1 болванка DVDR/RW)
 
 
Похожие темы
Форум Тема Автор Торрент Отв. Посл. сооб.
Зарубежный Hard, Progressive, Soft, Melodic, AOR, Folk, Classic Rock (Industrial Rock) Devil-M - Hollow Earth (2017) [MP3, 320 kbps] ANDRAKO
7 | 1

0 | 595

3

29.01.2017 10:47

Зарубежный Black, Death, Heavy, Thrash, Power, Folk, Gothic Metal (Industrial, Metall) Rammstein - Greatest Hits (2008) [MP3, 320 kbps] M-i-i-i-ke
18 | 2

1 | 2765

24

20.05.2013 14:28

Зарубежный Black, Death, Heavy, Thrash, Power, Folk, Gothic Metal (Industrial Metal / Dance Metal) Rammstein - Mein Land (2011) [MP3, VBR ~260 kbps] Jimmy
0 | 0

0 | 1250

7

12.11.2011 05:55

Зарубежный Black, Death, Heavy, Thrash, Power, Folk, Gothic Metal (Industrial Metal) Deathstars - Discography (2003-2010) [MP3, 320 kbps] Jimmy
2 | 0

0 | 1492

7

22.02.2012 11:59

Зарубежный Black, Death, Heavy, Thrash, Power, Folk, Gothic Metal (Industrial Gothic Metal) Omega Lithium - Дискография (2007 - 2011) [MP3, 192, 320 kbps] Jimmy
1 | 1

2 | 4129

10

12.03.2012 18:15

Зарубежный Black, Death, Heavy, Thrash, Power, Folk, Gothic Metal (Industrial Metal) Rammstein - Mein Herz Brennt (2012) [MP3, 320 kbps CBR] Jimmy
5 | 2

0 | 384

12

05.04.2017 04:45

Зарубежный Black, Death, Heavy, Thrash, Power, Folk, Gothic Metal (Industrial Metal / Dubstep / Male & Female vocals) Rave The Reqviem - Reqviem V1.0 (EP) (2013) [MP3, 320 kbps CBR] Jimmy
6 | 5

0 | 1577

10

22.02.2013 07:49

Зарубежный Black, Death, Heavy, Thrash, Power, Folk, Gothic Metal (Industrial/Gothic Metal) Artifact - Desolation (2013) [MP3, 320 kbps] Jimmy
1 | 0

0 | 764

7

02.01.2014 07:02

Зарубежный Black, Death, Heavy, Thrash, Power, Folk, Gothic Metal (Industrial Metal) 3teeth - Shutdown.exe (2017) [MP3, 320 kbps CBR] Darkferse
13 | 0

0 | 567

1

22.05.2017 16:32

Зарубежный Black, Death, Heavy, Thrash, Power, Folk, Gothic Metal (Industrial Metal, EBM) Combichrist - This Is Where Death Begins (2016) [MP3, 320 kbps] ANDRAKO
23 | 0

0 | 803

6

30.12.2016 12:33


Яндекс.Метрика powered by Sphinx


В Н И М А Н И Е
Сайт не распространяет и не хранит электронные версии произведений, а лишь бесплатно и без коммерческой выгоды (не требуя взамен платы,
SMS и т.д.) предоставляет доступ к создаваемому пользователями каталогу ссылок на торрент-файлы, которые содержат только списки хеш-сумм.
Убедительная просьба с жалобами обращаться напрямую к пользователю, разместившему торрент файл.

Вверх