Loading...
Error

(Jazz Fusion) Bunny Brunel & Friends - Bass Ball (2017) [FLAC (Image+.CUE), lossless]

Статистика раздачи
Размер:  539 MB   |    Зарегистрирован:  1 год   |    Скачан:  7 раз

Полного источника не было: 7 дней

Сидов:  0  |  0 KB/s  ]   Личеров:  0  |  0 KB/s  ]

* - сиды/пиры с внешних источников

   
 
Автор Сообщение

Darkferse Пол:Жен

10-Апр-2017 03:05

Bunny Brunel & Friends - Bass Ball

Жанр: Jazz Fusion
Год выпуска: 2017
Источник: CD
Производитель: Time Blues
Аудиокодек: FLAC
Тип рипа: Image+.CUE
Битрейт: lossless
Продолжительность: 01:05:47

Треклист:

01. Nothing But The Bass [04:42]
02. Slap & Tickle [05:21]
03. Stand Out [05:19]
04. Lopsy Lu [06:14]
05. Bay Of The Angels [03:48]
06. Gigi [06:35]
07. Lulu [03:52]
08. For You To Play [05:42]
09. Freedom Jazz Dance [05:58]
10. John's Space [04:41]
11. Tradition [06:13]
12. Bay Of The Angels (Extended) [07:13]

Код:

Exact Audio Copy V1.1 from 23. June 2015

Отчёт EAC об извлечении, выполненном 7. апреля 2017, 20:07

Bunny Brunel & Friends / Bass Ball

Дисковод: ASUS    DRW-22B3S   Adapter: 1  ID: 2

Режим чтения                 : Достоверность
Использование точного потока : Да
Отключение кэша аудио        : Да
Использование указателей C2  : Нет

Коррекция смещения при чтении                     : 6
Способность читать области Lead-in и Lead-out     : Нет
Заполнение пропущенных сэмплов тишиной            : Да
Удаление блоков с тишиной в начале и конце        : Нет
При вычислениях CRC использовались нулевые сэмплы : Да
Интерфейс                                         : Встроенный Win32-интерфейс для Win NT/2000

Выходной формат          : Пользовательский кодировщик
Выбранный битрейт        : 768 kBit/s
Качество                 : Высокий
Добавление ID3-тега      : Нет
Утилита сжатия           : C:\Program Files\Exact Audio Copy\FLAC\FLAC.EXE
Дополнительные параметры : -6 -V -T "ARTIST=%artist%" -T "TITLE=%title%" -T "ALBUM=%albumtitle%" -T "DATE=%year%" -T "TRACKNUMBER=%tracknr%" -T "GENRE=%genre%" -T "COMMENT=%comment%" -T "BAND=%albuminterpret%" -T "ALBUMARTIST=%albuminterpret%" -T "COMPOSER=%composer%" %haslyrics%--tag-from-file=LYRICS="%lyricsfile%"%haslyrics% -T "DISCNUMBER=%cdnumber%" -T "TOTALDISCS=%totalcds%" -T "TOTALTRACKS=%numtracks%" %hascover%--picture="%coverfile%"%hascover% %source% -o %dest%

TOC извлечённого CD

     Трек |   Старт  | Длительность | Начальный сектор | Конечный сектор
    ---------------------------------------------------------------------
       1  |  0:00.00 |    4:42.47   |           0      |      21196
       2  |  4:42.47 |    5:21.18   |       21197      |      45289
       3  | 10:03.65 |    5:19.61   |       45290      |      69275
       4  | 15:23.51 |    6:14.72   |       69276      |      97397
       5  | 21:38.48 |    3:48.36   |       97398      |     114533
       6  | 25:27.09 |    6:35.39   |      114534      |     144197
       7  | 32:02.48 |    3:52.29   |      144198      |     161626
       8  | 35:55.02 |    5:42.59   |      161627      |     187335
       9  | 41:37.61 |    5:58.49   |      187336      |     214234
      10  | 47:36.35 |    4:41.47   |      214235      |     235356
      11  | 52:18.07 |    6:13.74   |      235357      |     263405
      12  | 58:32.06 |    7:13.08   |      263406      |     295888

Характеристики диапазона извлечения и сообщения об ошибках

Выбранный диапазон

     Имя файла D:\New Uploads 01.12.2016\Bunny Brunel & Friends - Bass Ball - 2017  65'47''\Bunny Brunel & Friends - Bass Ball.wav

     Пиковый уровень 91.2 %
     Скорость извлечения 3.4 X
     Качество диапазона 100.0 %
     CRC теста E289DB23
     CRC копии E289DB23
     Копирование... OK

Ошибок не произошло

Конец отчёта

---- CUETools DB Plugin V2.1.6

[CTDB TOCID: TjnMHzm4ThWLNPjMLv3KOCH4dO0-] disk not present in database
Submit result: TjnMHzm4ThWLNPjMLv3KOCH4dO0- has been uploaded

==== Контрольная сумма отчёта 3249CB4DE433DF67C15615F2D4F0FF5E481E8ECCA7C3013E9AADA789134089EB ====

Код:

REM GENRE Jazz
REM DATE 2017
REM DISCID A30F690C
REM COMMENT "ExactAudioCopy v1.1"
PERFORMER "Bunny Brunel & Friends"
TITLE "Bass Ball"
FILE "Bunny Brunel & Friends - Bass Ball.flac" WAVE
  TRACK 01 AUDIO
    TITLE "Nothing But The Bass"
    PERFORMER "Bunny Brunel & Friends"
    INDEX 01 00:00:00
  TRACK 02 AUDIO
    TITLE "Slap & Tickle"
    PERFORMER "Bunny Brunel & Friends"
    INDEX 01 04:42:47
  TRACK 03 AUDIO
    TITLE "Stand Out"
    PERFORMER "Bunny Brunel & Friends"
    INDEX 01 10:03:65
  TRACK 04 AUDIO
    TITLE "Lopsy Lu"
    PERFORMER "Bunny Brunel & Friends"
    INDEX 01 15:23:51
  TRACK 05 AUDIO
    TITLE "Bay Of The Angels"
    PERFORMER "Bunny Brunel & Friends"
    INDEX 01 21:38:48
  TRACK 06 AUDIO
    TITLE "Gigi"
    PERFORMER "Bunny Brunel & Friends"
    INDEX 01 25:27:09
  TRACK 07 AUDIO
    TITLE "Lulu"
    PERFORMER "Bunny Brunel & Friends"
    INDEX 01 32:02:48
  TRACK 08 AUDIO
    TITLE "For You To Play"
    PERFORMER "Bunny Brunel & Friends"
    INDEX 01 35:55:02
  TRACK 09 AUDIO
    TITLE "Freedom Jazz Dance"
    PERFORMER "Bunny Brunel & Friends"
    INDEX 01 41:37:61
  TRACK 10 AUDIO
    TITLE "John's Space"
    PERFORMER "Bunny Brunel & Friends"
    INDEX 01 47:36:35
  TRACK 11 AUDIO
    TITLE "Tradition"
    PERFORMER "Bunny Brunel & Friends"
    INDEX 01 52:18:07
  TRACK 12 AUDIO
    TITLE "Bay Of The Angels (Extended)"
    PERFORMER "Bunny Brunel & Friends"
    INDEX 01 58:32:06

Этот торрент недоступен для скачивания без регистрации, однако доступен по публичной magnet-ссылке (источники с публичных трекеров). Перед использованием ссылки прочтите, пожалуйста Пользовательское соглашение, а также как можно дольше оставайтесь на раздаче! Для того, чтобы скачать сам торрент-файл (который видит больше источников), а также для того, чтобы поблагодарить релизера, вам необходимо зарегистрироваться. Если регистрироваться лень - вы можете также попробовать скачать релиз по нашим партнерским ссылкам ниже. Кроме того, зарегистрированным пользователям не показывается всплывающая реклама при скачивании.

[underverse.me].t81032.torrent
Трекер: Зарегистрирован   [ 14.04.2017 08:54 ]  

Статус: проверено (by Бишеп at 14.04.2017 12:13)
Поблагодарили: пока никто не поблагодарил...
Тип торрента: публичный - доступные источники с открытых трекеров: 
Размер: 539 MB (занимает 0,12 DVDR, для записи нужно 1 болванка DVDR/RW)
 
 
Похожие темы
Форум Тема Автор Торрент Отв. Посл. сооб.
Jazz (Jazz Fusion, Jazz-Funk, Post-Bop) Jack DeJohnette, Larry Grenadier, John Medeski, John Scofield - Hudson (2017) [MP3, 320 kbps CBR] Darkferse
1 | 0

0 | 871

3

17.06.2017 10:24

Jazz (Jazz Fusion, Crossover Jazz) Wolfgang Haffner - Kind of Spain (2017) [MP3, 320 kbps CBR] Darkferse
7 | 1

0 | 581

2

27.08.2017 10:55

Jazz (Lossless) (Jazz Fusion) Jerry Goodman - Violin Fantasy (2016) [FLAC (Tracks+.Cue), Lossless] Бишеп
0 | 0

0 | 719

8

04.11.2016 09:52

Jazz (Lossless) (Jazz Fusion) Dennis Chambers - Groove And More (2013) [FLAC (Tracks+.CUE), Lossless] Бишеп
0 | 0

0 | 1035

9

26.04.2014 04:41

Jazz (Lossless) (Jazz Fusion) Alain Caron - Multiple Faces (2013) [FLAC (Tracks+.CUE), Lossless] Бишеп
5 | 1

0 | 1071

13

26.04.2014 05:11

Jazz (Lossless) (Jazz Fusion, Jazz Rock, Ethnic Fusion) Jordi Sabates - Ocells Del Mes Enlla (2008) [FLAC (Tracks+.CUE), Lossless] Бишеп
3 | 1

0 | 1068

6

31.08.2015 18:08


Яндекс.Метрика powered by Sphinx


В Н И М А Н И Е
Сайт не распространяет и не хранит электронные версии произведений, а лишь бесплатно и без коммерческой выгоды (не требуя взамен платы,
SMS и т.д.) предоставляет доступ к создаваемому пользователями каталогу ссылок на торрент-файлы, которые содержат только списки хеш-сумм.
Убедительная просьба с жалобами обращаться напрямую к пользователю, разместившему торрент файл.

Вверх