Loading...
Error

(Dark Ambient, Industrial) In Slaughter Natives - Psicofonias - Las Voces Desconocidas (2016) [FLAC (Tracks+.CUE), lossless]

Статистика раздачи
Размер:  261 MB   |    Зарегистрирован:  1 год 1 месяц   |    Скачан:  3 раза

Полного источника не было: 2 месяца 9 дней

Сидов:  0  |  0 KB/s  ]   Личеров:  0  |  0 KB/s  ]

* - сиды/пиры с внешних источников

   
 
Автор Сообщение

Darkferse Пол:Жен

03-Апр-2017 12:14

In Slaughter Natives - Psicofonias - Las Voces Desconocidas

Жанр: Dark Ambient, Industrial
Страна: Sweden
Год выпуска: 2016
Источник: CD
Производитель: Gradual Hate Records - GH 131 CD
Аудиокодек: FLAC
Тип рипа: Tracks+.CUE
Битрейт: lossless
Продолжительность: 00:47:09

Треклист:

1. Thou Shall [Witness] (7:55)
2. Opened Eyes (2:55)
3. My Oath My Humble Wrath, Infinity In Silence (2:40)
4. Thou Shall [Glorify] (3:12)
5. But I Still Never Made It (4:36)
6. Thou Shall [Dismember] (2:24)
7. We Who Never Sleep (4:03)
8. Thou Shall [Purify] (3:27)
9. My Torment (2:52)
10. Thou Shall [Disname] (3:16)
11. You Are The Dead (5:42)
12. Behind My Walls (3:39)

Код:

Exact Audio Copy V1.1 from 23. June 2015

EAC extraction logfile from 24. March 2017, 1:51

In Slaughter Natives / Psicofonias - Las Voces Desconocidas

Used drive  : SlimtypeDVD A  DS8A8SH   Adapter: 1  ID: 0

Read mode               : Secure
Utilize accurate stream : Yes
Defeat audio cache      : Yes
Make use of C2 pointers : No

Read offset correction                      : 6
Overread into Lead-In and Lead-Out          : No
Fill up missing offset samples with silence : Yes
Delete leading and trailing silent blocks   : No
Null samples used in CRC calculations       : Yes
Used interface                              : Native Win32 interface for Win NT & 2000
Gap handling                                : Appended to previous track

Used output format              : User Defined Encoder
Selected bitrate                : 768 kBit/s
Quality                         : High
Add ID3 tag                     : No
Command line compressor         : C:\Program Files (x86)\Exact Audio Copy\FLAC\FLAC.EXE
Additional command line options : -6 -V -T "ARTIST=%artist%" -T "TITLE=%title%" -T "ALBUM=%albumtitle%" -T "DATE=%year%" -T "TRACKNUMBER=%tracknr%" -T "GENRE=%genre%" -T "COMMENT=%comment%" -T "BAND=%albuminterpret%" -T "ALBUMARTIST=%albuminterpret%" -T "COMPOSER=%composer%" %haslyrics%--tag-from-file=LYRICS="%lyricsfile%"%haslyrics% -T "DISCNUMBER=%cdnumber%" -T "TOTALDISCS=%totalcds%" -T "TOTALTRACKS=%numtracks%" %hascover%--picture="%coverfile%"%hascover% %source% -o %dest%

TOC of the extracted CD

     Track |   Start  |  Length  | Start sector | End sector
    ---------------------------------------------------------
        1  |  0:00.00 |  7:57.43 |         0    |    35817
        2  |  7:57.43 |  2:57.24 |     35818    |    49116
        3  | 10:54.67 |  2:42.30 |     49117    |    61296
        4  | 13:37.22 |  3:14.63 |     61297    |    75909
        5  | 16:52.10 |  4:38.51 |     75910    |    96810
        6  | 21:30.61 |  2:26.73 |     96811    |   107833
        7  | 23:57.59 |  4:05.07 |    107834    |   126215
        8  | 28:02.66 |  3:29.56 |    126216    |   141946
        9  | 31:32.47 |  2:54.11 |    141947    |   155007
       10  | 34:26.58 |  3:18.68 |    155008    |   169925
       11  | 37:45.51 |  5:44.09 |    169926    |   195734
       12  | 43:29.60 |  3:39.24 |    195735    |   212183

Track  1

     Filename D:\downloads\In Slaughter Natives - Psicofonias - Las Voces Desconocidas\01. Thou Shall [Witness].wav

     Pre-gap length  0:00:02.00

     Peak level 98.0 %
     Extraction speed 2.9 X
     Track quality 100.0 %
     Test CRC EE17FBBC
     Copy CRC EE17FBBC
     Accurately ripped (confidence 1)  [1E19ECB7]  (AR v2)
     Copy OK

Track  2

     Filename D:\downloads\In Slaughter Natives - Psicofonias - Las Voces Desconocidas\02. Opened Eyes.wav

     Peak level 98.7 %
     Extraction speed 3.0 X
     Track quality 100.0 %
     Test CRC 5F0EE536
     Copy CRC 5F0EE536
     Accurately ripped (confidence 1)  [3EC62E5A]  (AR v2)
     Copy OK

Track  3

     Filename D:\downloads\In Slaughter Natives - Psicofonias - Las Voces Desconocidas\03. My Oath My Humble Wrath, Infinity In Silence.wav

     Peak level 99.7 %
     Extraction speed 3.1 X
     Track quality 100.0 %
     Test CRC 31E0065E
     Copy CRC 31E0065E
     Accurately ripped (confidence 1)  [7E4B610F]  (AR v2)
     Copy OK

Track  4

     Filename D:\downloads\In Slaughter Natives - Psicofonias - Las Voces Desconocidas\04. Thou Shall [Glorify].wav

     Peak level 99.9 %
     Extraction speed 2.9 X
     Track quality 99.9 %
     Test CRC 257FF2F4
     Copy CRC 257FF2F4
     Accurately ripped (confidence 1)  [2EF1243C]  (AR v2)
     Copy OK

Track  5

     Filename D:\downloads\In Slaughter Natives - Psicofonias - Las Voces Desconocidas\05. But I Still Never Made It.wav

     Peak level 98.8 %
     Extraction speed 3.8 X
     Track quality 100.0 %
     Test CRC E31D2746
     Copy CRC E31D2746
     Accurately ripped (confidence 1)  [07D49B6F]  (AR v2)
     Copy OK

Track  6

     Filename D:\downloads\In Slaughter Natives - Psicofonias - Las Voces Desconocidas\06. Thou Shall [Dismember].wav

     Peak level 98.8 %
     Extraction speed 3.6 X
     Track quality 100.0 %
     Test CRC 0462FF59
     Copy CRC 0462FF59
     Accurately ripped (confidence 1)  [57883677]  (AR v2)
     Copy OK

Track  7

     Filename D:\downloads\In Slaughter Natives - Psicofonias - Las Voces Desconocidas\07. We Who Never Sleep.wav

     Peak level 98.4 %
     Extraction speed 4.1 X
     Track quality 100.0 %
     Test CRC D28BD56A
     Copy CRC D28BD56A
     Accurately ripped (confidence 1)  [ED8D774D]  (AR v2)
     Copy OK

Track  8

     Filename D:\downloads\In Slaughter Natives - Psicofonias - Las Voces Desconocidas\08. Thou Shall [Purify].wav

     Peak level 95.5 %
     Extraction speed 4.2 X
     Track quality 100.0 %
     Test CRC 8F65C694
     Copy CRC 8F65C694
     Accurately ripped (confidence 1)  [2559A9A2]  (AR v2)
     Copy OK

Track  9

     Filename D:\downloads\In Slaughter Natives - Psicofonias - Las Voces Desconocidas\09. My Torment.wav

     Peak level 98.7 %
     Extraction speed 4.2 X
     Track quality 100.0 %
     Test CRC 2B72FB84
     Copy CRC 2B72FB84
     Accurately ripped (confidence 1)  [9707C4A0]  (AR v2)
     Copy OK

Track 10

     Filename D:\downloads\In Slaughter Natives - Psicofonias - Las Voces Desconocidas\10. Thou Shall [Disname].wav

     Peak level 95.5 %
     Extraction speed 4.4 X
     Track quality 100.0 %
     Test CRC 130FCDA0
     Copy CRC 130FCDA0
     Accurately ripped (confidence 1)  [41E74FA8]  (AR v2)
     Copy OK

Track 11

     Filename D:\downloads\In Slaughter Natives - Psicofonias - Las Voces Desconocidas\11. You Are The Dead.wav

     Peak level 98.7 %
     Extraction speed 4.9 X
     Track quality 100.0 %
     Test CRC 2D8ECD2C
     Copy CRC 2D8ECD2C
     Accurately ripped (confidence 1)  [E68325A0]  (AR v2)
     Copy OK

Track 12

     Filename D:\downloads\In Slaughter Natives - Psicofonias - Las Voces Desconocidas\12. Behind My Walls.wav

     Peak level 84.4 %
     Extraction speed 4.8 X
     Track quality 100.0 %
     Test CRC 53266717
     Copy CRC 53266717
     Accurately ripped (confidence 1)  [13447C95]  (AR v2)
     Copy OK

All tracks accurately ripped

No errors occurred

End of status report

---- CUETools DB Plugin V2.1.6

[CTDB TOCID: 3PoBr9nuTTefSc2kpcqiRfamUPk-] found
Submit result: 3PoBr9nuTTefSc2kpcqiRfamUPk- has been confirmed
Track | CTDB Status
  1   | (2/2) Accurately ripped
  2   | (2/2) Accurately ripped
  3   | (2/2) Accurately ripped
  4   | (2/2) Accurately ripped
  5   | (2/2) Accurately ripped
  6   | (2/2) Accurately ripped
  7   | (2/2) Accurately ripped
  8   | (2/2) Accurately ripped
  9   | (2/2) Accurately ripped
 10   | (2/2) Accurately ripped
 11   | (2/2) Accurately ripped
 12   | (2/2) Accurately ripped

==== Log checksum C9585AB0700A7AEB8678336900DE46182941770E73D2555569699C8169431CEE ====

Код:

REM GENRE Industrial
REM DATE 2017
REM DISCID B20B0D0C
REM COMMENT "ExactAudioCopy v1.1"
PERFORMER "In Slaughter Natives"
TITLE "Psicofonias - Las Voces Desconocidas"
FILE "01. Thou Shall [Witness].wav" WAVE
  TRACK 01 AUDIO
    TITLE "Thou Shall [Witness]"
    PERFORMER "In Slaughter Natives"
    INDEX 01 00:00:00
FILE "02. Opened Eyes.wav" WAVE
  TRACK 02 AUDIO
    TITLE "Opened Eyes"
    PERFORMER "In Slaughter Natives"
    INDEX 01 00:00:00
FILE "03. My Oath My Humble Wrath, Infinity In Silence.wav" WAVE
  TRACK 03 AUDIO
    TITLE "My Oath My Humble Wrath, Infinity In Silence"
    PERFORMER "In Slaughter Natives"
    INDEX 01 00:00:00
FILE "04. Thou Shall [Glorify].wav" WAVE
  TRACK 04 AUDIO
    TITLE "Thou Shall [Glorify]"
    PERFORMER "In Slaughter Natives"
    INDEX 01 00:00:00
FILE "05. But I Still Never Made It.wav" WAVE
  TRACK 05 AUDIO
    TITLE "But I Still Never Made It"
    PERFORMER "In Slaughter Natives"
    INDEX 01 00:00:00
FILE "06. Thou Shall [Dismember].wav" WAVE
  TRACK 06 AUDIO
    TITLE "Thou Shall [Dismember]"
    PERFORMER "In Slaughter Natives"
    INDEX 01 00:00:00
FILE "07. We Who Never Sleep.wav" WAVE
  TRACK 07 AUDIO
    TITLE "We Who Never Sleep"
    PERFORMER "In Slaughter Natives"
    INDEX 01 00:00:00
FILE "08. Thou Shall [Purify].wav" WAVE
  TRACK 08 AUDIO
    TITLE "Thou Shall [Purify]"
    PERFORMER "In Slaughter Natives"
    INDEX 01 00:00:00
FILE "09. My Torment.wav" WAVE
  TRACK 09 AUDIO
    TITLE "My Torment"
    PERFORMER "In Slaughter Natives"
    INDEX 01 00:00:00
FILE "10. Thou Shall [Disname].wav" WAVE
  TRACK 10 AUDIO
    TITLE "Thou Shall [Disname]"
    PERFORMER "In Slaughter Natives"
    INDEX 01 00:00:00
FILE "11. You Are The Dead.wav" WAVE
  TRACK 11 AUDIO
    TITLE "You Are The Dead"
    PERFORMER "In Slaughter Natives"
    INDEX 01 00:00:00
FILE "12. Behind My Walls.wav" WAVE
  TRACK 12 AUDIO
    TITLE "Behind My Walls"
    PERFORMER "In Slaughter Natives"
    INDEX 01 00:00:00
inslaughternatives.com

Этот торрент недоступен для скачивания без регистрации, однако доступен по публичной magnet-ссылке (источники с публичных трекеров). Перед использованием ссылки прочтите, пожалуйста Пользовательское соглашение, а также как можно дольше оставайтесь на раздаче! Для того, чтобы скачать сам торрент-файл (который видит больше источников), а также для того, чтобы поблагодарить релизера, вам необходимо зарегистрироваться. Если регистрироваться лень - вы можете также попробовать скачать релиз по нашим партнерским ссылкам ниже. Кроме того, зарегистрированным пользователям не показывается всплывающая реклама при скачивании.

[underverse.me].t80631.torrent
Трекер: Зарегистрирован   [ 03.04.2017 12:14 ]  

Статус: проверено (by Бишеп at 03.04.2017 12:42)
Поблагодарили: пока никто не поблагодарил...
Тип торрента: публичный - доступные источники с открытых трекеров: 
Размер: 261 MB (занимает 0,06 DVDR, для записи нужно 1 болванка DVDR/RW)
 
 
Похожие темы
Форум Тема Автор Торрент Отв. Посл. сооб.
Зарубежный Black, Death, Heavy, Thrash, Power, Folk, Gothic Metal (Dark Ambient, Drone, Noise, Black Metal) Mara - Inner Ugliness (Remastering) (2012) [MP3, 320 kbps CBR] Jimmy
0 | 0

0 | 1381

2

12.12.2012 13:33

Traditional Electronic, Ambient, NewAge (Dark Ambient) Kolhoosi 13 - Monuments Of Power (2016) [MP3, 320 kbps] ANDRAKO
2 | 1

0 | 727

1

23.12.2016 17:52

Traditional Electronic, Ambient, NewAge (Dark ambient) Deep Frozen Lands - White Horizons (2012) [MP3, 320 kbps CBR] Jimmy
1 | 0

0 | 1572

1

13.12.2012 18:41

Traditional Electronic, Ambient, NewAge (Dark Ambient) Kreazot-Maks - Contemplation (2016) [MP3, 320 kbps] ANDRAKO
2 | 1

0 | 643

2

10.01.2017 16:41

EBM, Industrial, Dark Electro, Darkwave, Gothic Synth (Dark Ambient, Ritual Ambient) Kumbhaka - Lines and Shadows (2017) [MP3, 320 kbps CBR] Darkferse
2 | 0

0 | 465

2

27.05.2017 18:50

Traditional Electronic, Ambient, NewAge (Lossless) (Dark Ambient, Drone) Ajna - An Era of Torment (2017) [FLAC (Tracks), lossless] Web Darkferse
1 | 0

0 | 172

1

17.01.2018 11:59

Traditional Electronic, Ambient, NewAge (Lossless) (Dark Ambient, Drone) Ajna & Dronny Darko - Black Monolith (2017) [FLAC (Tracks), lossless] Web Darkferse
2 | 0

0 | 240

1

17.01.2018 12:08

Traditional Electronic, Ambient, NewAge (Lossless) (Dark Ambient, Neofolk, Experimental) Enmarta - The Hermit (2016) [FLAC (Tracks), Lossless] Web Бишеп
2 | 0

0 | 204

3

17.02.2018 16:31

Traditional Electronic, Ambient, NewAge (Lossless) (Dark Ambient, Berlin School) Cosmic Ground - 2 (2015) [FLAC (Tracks), Lossless] Web Бишеп
5 | 1

0 | 203

5

17.02.2018 16:45

Архив (рок) (Dark Ambient, Drone, Noise, Black Metal) Mara - Sanity Collapsing (Remastering) (2012) [MP3, 320 kbps] Jimmy
0 | 0

1 | 1096

1

31.01.2018 19:52


Яндекс.Метрика powered by Sphinx


В Н И М А Н И Е
Сайт не распространяет и не хранит электронные версии произведений, а лишь бесплатно и без коммерческой выгоды (не требуя взамен платы,
SMS и т.д.) предоставляет доступ к создаваемому пользователями каталогу ссылок на торрент-файлы, которые содержат только списки хеш-сумм.
Убедительная просьба с жалобами обращаться напрямую к пользователю, разместившему торрент файл.

Вверх