Loading...
Error

(Score) Бэтмен будущего / Batman Beyond (by Kristopher Carter, Shirley Walker, Lolita Ritmanis, Michael McCuistion) (1999) [FLAC (Tracks+.CUE), lossless]

Статистика раздачи
Размер:  280 MB   |    Зарегистрирован:  11 месяцев   |    Скачан:  1 раз

Полного источника не было: 15 часов

Сидов:  0  |  0 KB/s  ]   Личеров:  0  |  0 KB/s  ]

* - сиды/пиры с внешних источников

   
 
Автор Сообщение

garry Пол:Муж

04-Мар-2017 13:04

Бэтмен будущего / Batman Beyond

Жанр: Score
Год выпуска: 1999
Источник: CD
Производитель: Rhino Entertainment
Аудиокодек: FLAC
Тип рипа: Tracks+.CUE
Битрейт: lossless
Продолжительность: 00:40:08

Треклист:

01. Kristopher Carter - Batman Beyond (Main Title)
02. Lolita Ritmanis - Cold VS Hot
03. Michael McCuistion - Terrific Trio VS Rocketeers
04. Kristopher Carter - Bat-Slapped InStore
05. Lolita Ritmanis - Farewells
06. Kristopher Carter - Batman Defeats Chappell
07. Kristopher Carter - Batman Chases Inque
08. Michael McCuistion - Yachting With The Card Gang
09. Michael McCuistion - Batmans's First Fight
10. Michael McCuistion - The Legacy Continues
11. Shirley Walker - Hotel Scuffle
12. Shirley Walker - Trouble In The Museum
13. Kristopher Carter - Inque Escapes!
14. Michael McCuistion - Nuclear Lab Destruction
15. Shirley Walker - Golem Chases Shoppers
16. Shirley Walker - Willie Defeated
17. Michael McCuistion - Genetic Theft
18. Lolita Ritmanis - Joker Chase
19. Lolita Ritmanis - Move To The Groove
20. Shirley Walker - Batman Beyond (End Credits)
Exact Audio Copy V0.99 prebeta 4 from 23. January 2008

EAC extraction logfile from 24. March 2009, 23:39

Shirley Walker / Batman Beyond

Used drive : Optiarc DVD RW AD-7203S Adapter: 1 ID: 2

Read mode : Secure
Utilize accurate stream : Yes
Defeat audio cache : Yes
Make use of C2 pointers : No

Read offset correction : 48
Overread into Lead-In and Lead-Out : No
Fill up missing offset samples with silence : Yes
Delete leading and trailing silent blocks : No
Null samples used in CRC calculations : Yes
Used interface : Native Win32 interface for Win NT & 2000
Gap handling : Appended to previous track

Used output format : User Defined Encoder
Selected bitrate : 768 kBit/s
Quality : High
Add ID3 tag : No
Command line compressor : C:\Program Files (x86)\Exact Audio Copy\FLAC\FLAC.EXE
Additional command line options : -V -8 -T "artist=%a" -T "title=%t" -T "album=%g" -T "date=%y" -T "tracknumber=%n" -T "genre=%m" %s

TOC of the extracted CD

Track | Start | Length | Start sector | End sector
---------------------------------------------------------
1 | 0:00.32 | 1:00.48 | 32 | 4579
2 | 1:01.05 | 3:12.60 | 4580 | 19039
3 | 4:13.65 | 1:50.42 | 19040 | 27331
4 | 6:04.32 | 1:16.58 | 27332 | 33089
5 | 7:21.15 | 2:44.62 | 33090 | 45451
6 | 10:06.02 | 2:14.35 | 45452 | 55536
7 | 12:20.37 | 2:43.33 | 55537 | 67794
8 | 15:03.70 | 2:09.02 | 67795 | 77471
9 | 17:12.72 | 2:57.20 | 77472 | 90766
10 | 20:10.17 | 1:24.40 | 90767 | 97106
11 | 21:34.57 | 1:57.15 | 97107 | 105896
12 | 23:31.72 | 1:46.48 | 105897 | 113894
13 | 25:18.45 | 1:22.55 | 113895 | 120099
14 | 26:41.25 | 1:54.07 | 120100 | 128656
15 | 28:35.32 | 2:00.15 | 128657 | 137671
16 | 30:35.47 | 2:37.65 | 137672 | 149511
17 | 33:13.37 | 1:29.23 | 149512 | 156209
18 | 34:42.60 | 3:08.37 | 156210 | 170346
19 | 37:51.22 | 1:16.70 | 170347 | 176116
20 | 39:08.17 | 1:00.15 | 176117 | 180631

Track 1

Filename D:\Shirley Walker - 1999 - Batman Beyond\01 - Kristopher Carter , Batman Beyond (Main Title).wav

Pre-gap length 0:00:02.42

Peak level 94.4 %
Track quality 100.0 %
Test CRC 80FF0928
Copy CRC 80FF0928
Accurately ripped (confidence 2) [BD8338B3]
Copy OK

Track 2

Filename D:\Shirley Walker - 1999 - Batman Beyond\02 - Lolita Ritmanis , Cold Vs. Hot.wav

Pre-gap length 0:00:00.37

Peak level 94.4 %
Track quality 100.0 %
Test CRC C5AABFAB
Copy CRC C5AABFAB
Accurately ripped (confidence 3) [61605540]
Copy OK

Track 3

Filename D:\Shirley Walker - 1999 - Batman Beyond\03 - Michael McCuistion , Terrific Trio Vs. Rocketeers.wav

Pre-gap length 0:00:00.66

Peak level 94.4 %
Track quality 99.9 %
Test CRC 4129B685
Copy CRC 4129B685
Accurately ripped (confidence 4) [624DCFF1]
Copy OK

Track 4

Filename D:\Shirley Walker - 1999 - Batman Beyond\04 - Kristopher Carter , Bat-Slapped in Store.wav

Pre-gap length 0:00:00.76

Peak level 94.4 %
Track quality 99.8 %
Test CRC 69DED56D
Copy CRC 69DED56D
Accurately ripped (confidence 3) [562ABCB6]
Copy OK

Track 5

Filename D:\Shirley Walker - 1999 - Batman Beyond\05 - Lolita Ritmanis , Farewells.wav

Pre-gap length 0:00:02.04

Peak level 94.4 %
Track quality 100.0 %
Test CRC 093EA206
Copy CRC 093EA206
Accurately ripped (confidence 3) [A81CF99D]
Copy OK

Track 6

Filename D:\Shirley Walker - 1999 - Batman Beyond\06 - Kristopher Carter , Batman Defeats Chappell.wav

Pre-gap length 0:00:02.49

Peak level 84.1 %
Track quality 99.9 %
Test CRC 70AF776F
Copy CRC 70AF776F
Accurately ripped (confidence 3) [9FEEABC9]
Copy OK

Track 7

Filename D:\Shirley Walker - 1999 - Batman Beyond\07 - Kristopher Carter , Batman Chases Inque.wav

Pre-gap length 0:00:01.49

Peak level 94.4 %
Track quality 100.0 %
Test CRC 9E7589A6
Copy CRC 9E7589A6
Accurately ripped (confidence 3) [71261379]
Copy OK

Track 8

Filename D:\Shirley Walker - 1999 - Batman Beyond\08 - Shirley Walker , Yachting With The Card Gang.wav

Pre-gap length 0:00:00.97

Peak level 94.4 %
Track quality 99.6 %
Test CRC 56D172C6
Copy CRC 56D172C6
Accurately ripped (confidence 3) [CDAE1B8E]
Copy OK

Track 9

Filename D:\Shirley Walker - 1999 - Batman Beyond\09 - Michael McCuistion , Batman's First Fight.wav

Pre-gap length 0:00:01.73

Peak level 94.4 %
Track quality 100.0 %
Test CRC 11F77665
Copy CRC 11F77665
Accurately ripped (confidence 3) [2B79B6C2]
Copy OK

Track 10

Filename D:\Shirley Walker - 1999 - Batman Beyond\10 - Michael McCuistion , The Legacy Continues.wav

Pre-gap length 0:00:02.29

Peak level 94.4 %
Track quality 100.0 %
Test CRC B8CBE2CA
Copy CRC B8CBE2CA
Accurately ripped (confidence 3) [8DAD419C]
Copy OK

Track 11

Filename D:\Shirley Walker - 1999 - Batman Beyond\11 - Shirley Walker , Hotel Scuffle.wav

Pre-gap length 0:00:01.33

Peak level 94.4 %
Track quality 99.9 %
Test CRC 19755B6E
Copy CRC 19755B6E
Accurately ripped (confidence 3) [3B89D753]
Copy OK

Track 12

Filename D:\Shirley Walker - 1999 - Batman Beyond\12 - Shirley Walker , Trouble In The Museum.wav

Pre-gap length 0:00:01.73

Peak level 94.4 %
Track quality 100.0 %
Test CRC A4723F5A
Copy CRC A4723F5A
Accurately ripped (confidence 4) [709B5265]
Copy OK

Track 13

Filename D:\Shirley Walker - 1999 - Batman Beyond\13 - Kristopher Carter , Inque Escapes!.wav

Pre-gap length 0:00:01.26

Peak level 94.4 %
Track quality 100.0 %
Test CRC FFC503C2
Copy CRC FFC503C2
Accurately ripped (confidence 4) [2AA0CE57]
Copy OK

Track 14

Filename D:\Shirley Walker - 1999 - Batman Beyond\14 - Michael McCuistion , Nuclear Lab Destruction.wav

Pre-gap length 0:00:02.37

Peak level 94.4 %
Track quality 100.0 %
Test CRC C1823018
Copy CRC C1823018
Accurately ripped (confidence 4) [67E291AD]
Copy OK

Track 15

Filename D:\Shirley Walker - 1999 - Batman Beyond\15 - Shirley Walker , Golem Chases Shoppers.wav

Pre-gap length 0:00:00.80

Peak level 94.4 %
Track quality 99.9 %
Test CRC 24458C70
Copy CRC 24458C70
Accurately ripped (confidence 4) [B28A8C16]
Copy OK

Track 16

Filename D:\Shirley Walker - 1999 - Batman Beyond\16 - Shirley Walker , Willie Defeated.wav

Pre-gap length 0:00:01.00

Peak level 94.4 %
Track quality 100.0 %
Test CRC B9DF9A55
Copy CRC B9DF9A55
Accurately ripped (confidence 4) [7B51B3A1]
Copy OK

Track 17

Filename D:\Shirley Walker - 1999 - Batman Beyond\17 - Michael McCuistion , Genetic Theft.wav

Pre-gap length 0:00:01.40

Peak level 94.4 %
Track quality 99.8 %
Test CRC D89CFA08
Copy CRC D89CFA08
Accurately ripped (confidence 4) [9C789ACB]
Copy OK

Track 18

Filename D:\Shirley Walker - 1999 - Batman Beyond\18 - Lolita Ritmanis , Joker Chase.wav

Pre-gap length 0:00:03.06

Peak level 94.4 %
Track quality 100.0 %
Test CRC D31307B1
Copy CRC D31307B1
Accurately ripped (confidence 4) [853800EF]
Copy OK

Track 19

Filename D:\Shirley Walker - 1999 - Batman Beyond\19 - Lolita Ritmanis , Move To The Groove.wav

Pre-gap length 0:00:01.69

Peak level 74.9 %
Track quality 100.0 %
Test CRC 591A555A
Copy CRC 591A555A
Accurately ripped (confidence 4) [391A02A6]
Copy OK

Track 20

Filename D:\Shirley Walker - 1999 - Batman Beyond\20 - Shirley Walker , Batman Beyond End Credits.wav

Pre-gap length 0:00:02.00

Peak level 94.4 %
Track quality 100.0 %
Test CRC E3EAC366
Copy CRC E3EAC366
Accurately ripped (confidence 4) [BD54729A]
Copy OK

All tracks accurately ripped

No errors occurred

End of status report
REM GENRE Soundtrack
REM DATE 1999
REM DISCID F6096814
REM COMMENT "ExactAudioCopy v0.99pb4"
CATALOG 0075677592523
PERFORMER "Shirley Walker"
TITLE "Batman Beyond"
FILE "01 - Kristopher Carter - Batman Beyond (Main Title).wav" WAVE
TRACK 01 AUDIO
TITLE "Batman Beyond (Main Title)"
PERFORMER "Kristopher Carter"
PREGAP 00:00:32
INDEX 01 00:00:00
TRACK 02 AUDIO
TITLE "Cold Vs. Hot"
PERFORMER "Lolita Ritmanis"
INDEX 00 01:00:20
FILE "02 - Lolita Ritmanis - Cold Vs. Hot.wav" WAVE
INDEX 01 00:00:00
TRACK 03 AUDIO
TITLE "Terrific Trio Vs. Rocketeers"
PERFORMER "Michael McCuistion"
INDEX 00 03:12:10
FILE "03 - Michael McCuistion - Terrific Trio Vs. Rocketeers.wav" WAVE
INDEX 01 00:00:00
TRACK 04 AUDIO
TITLE "Bat-Slapped in Store"
PERFORMER "Kristopher Carter"
INDEX 00 01:49:60
FILE "04 - Kristopher Carter - Bat-Slapped in Store.wav" WAVE
INDEX 01 00:00:00
TRACK 05 AUDIO
TITLE "Farewells"
PERFORMER "Lolita Ritmanis"
INDEX 00 01:14:55
FILE "05 - Lolita Ritmanis - Farewells.wav" WAVE
INDEX 01 00:00:00
TRACK 06 AUDIO
TITLE "Batman Defeats Chappell"
PERFORMER "Kristopher Carter"
INDEX 00 02:42:25
FILE "06 - Kristopher Carter - Batman Defeats Chappell.wav" WAVE
INDEX 01 00:00:00
TRACK 07 AUDIO
TITLE "Batman Chases Inque"
PERFORMER "Kristopher Carter"
INDEX 00 02:12:73
FILE "07 - Kristopher Carter - Batman Chases Inque.wav" WAVE
INDEX 01 00:00:00
TRACK 08 AUDIO
TITLE "Yachting With The Card Gang"
PERFORMER "Shirley Walker"
INDEX 00 02:42:35
FILE "08 - Yachting With The Card Gang.wav" WAVE
INDEX 01 00:00:00
TRACK 09 AUDIO
TITLE "Batman's First Fight"
PERFORMER "Michael McCuistion"
INDEX 00 02:07:22
FILE "09 - Michael McCuistion - Batman's First Fight.wav" WAVE
INDEX 01 00:00:00
TRACK 10 AUDIO
TITLE "The Legacy Continues"
PERFORMER "Michael McCuistion"
INDEX 00 02:54:73
FILE "10 - Michael McCuistion - The Legacy Continues.wav" WAVE
INDEX 01 00:00:00
TRACK 11 AUDIO
TITLE "Hotel Scuffle"
PERFORMER "Shirley Walker"
INDEX 00 01:23:15
FILE "11 - Hotel Scuffle.wav" WAVE
INDEX 01 00:00:00
TRACK 12 AUDIO
TITLE "Trouble In The Museum"
PERFORMER "Shirley Walker"
INDEX 00 01:55:35
FILE "12 - Trouble In The Museum.wav" WAVE
INDEX 01 00:00:00
TRACK 13 AUDIO
TITLE "Inque Escapes!"
PERFORMER "Kristopher Carter"
INDEX 00 01:45:28
FILE "13 - Kristopher Carter - Inque Escapes!.wav" WAVE
INDEX 01 00:00:00
TRACK 14 AUDIO
TITLE "Nuclear Lab Destruction"
PERFORMER "Michael McCuistion"
INDEX 00 01:20:27
FILE "14 - Michael McCuistion - Nuclear Lab Destruction.wav" WAVE
INDEX 01 00:00:00
TRACK 15 AUDIO
TITLE "Golem Chases Shoppers"
PERFORMER "Shirley Walker"
INDEX 00 01:53:22
FILE "15 - Golem Chases Shoppers.wav" WAVE
INDEX 01 00:00:00
TRACK 16 AUDIO
TITLE "Willie Defeated"
PERFORMER "Shirley Walker"
INDEX 00 01:59:15
FILE "16 - Willie Defeated.wav" WAVE
INDEX 01 00:00:00
TRACK 17 AUDIO
TITLE "Genetic Theft"
PERFORMER "Michael McCuistion"
INDEX 00 02:36:35
FILE "17 - Michael McCuistion - Genetic Theft.wav" WAVE
INDEX 01 00:00:00
TRACK 18 AUDIO
TITLE "Joker Chase"
PERFORMER "Lolita Ritmanis"
INDEX 00 01:26:18
FILE "18 - Lolita Ritmanis - Joker Chase.wav" WAVE
INDEX 01 00:00:00
TRACK 19 AUDIO
TITLE "Move To The Groove"
PERFORMER "Lolita Ritmanis"
INDEX 00 03:06:60
FILE "19 - Lolita Ritmanis - Move To The Groove.wav" WAVE
INDEX 01 00:00:00
TRACK 20 AUDIO
TITLE "Batman Beyond End Credits"
PERFORMER "Shirley Walker"
INDEX 00 01:14:70
FILE "20 - Batman Beyond End Credits.wav" WAVE
INDEX 01 00:00:00
picpicpic
Для увеличения картинки щелкните мышкой по превью

Этот торрент недоступен для скачивания без регистрации, однако доступен по публичной magnet-ссылке (источники с публичных трекеров). Перед использованием ссылки прочтите, пожалуйста Пользовательское соглашение, а также как можно дольше оставайтесь на раздаче! Для того, чтобы скачать сам торрент-файл (который видит больше источников), а также для того, чтобы поблагодарить релизера, вам необходимо зарегистрироваться. Если регистрироваться лень - вы можете также попробовать скачать релиз по нашим партнерским ссылкам ниже. Кроме того, зарегистрированным пользователям не показывается всплывающая реклама при скачивании.

[underverse.me].t79076.torrent
Трекер: Зарегистрирован   [ 04.03.2017 13:04 ]  

Статус: проверено (by garry at 04.03.2017 13:08)
Поблагодарили: пока никто не поблагодарил...
Тип торрента: публичный - доступные источники с открытых трекеров: 
Размер: 280 MB (занимает 0,06 DVDR, для записи нужно 1 болванка DVDR/RW)
 
 
Похожие темы
Форум Тема Автор Торрент Отв. Посл. сооб.
OST & Score - Movie (Score) Бэтмен: Начало | Темный рыцарь | Возрождение легенды / Batman Begins | The Dark Knight | Rises (by Hans Zimmer and James Newton Howard) (2005-2012) [iTunes AAC M4A, 256 kbps VBR] Web garry
1 | 0

0 | 2168

0

13.07.2012 18:27

OST & Score - Movie (Score) Бэтмен: Отвага и смелость / Batman: The Brave and the Bold (by Kristopher Carter, Lolita Ritmanis and Michael McCuistion) (2014 (2008-2011)) [MP3, 320 kbps] garry
0 | 0

0 | 1543

1

13.02.2014 18:49

OST & Score - Movie (Score) Бэтмен против Супермена: На заре справедливости | Лига справедливости / Batman v Superman: Dawn of Justice [Deluxe Edition] | Justice League (by Hans Zimmer, Junkie XL, Danny Elfman)... garry
1 | 0

0 | 1193

0

18.03.2016 19:46

OST & Score Movie, TV Show & Series, Game (Lossless) (Score) Бэтмен: Под колпаком / Batman: Under the Red Hood (by Christopher Drake) (2010) [FLAC (Tracks+.CUE), lossless] garry
0 | 1

0 | 2144

0

18.11.2010 12:15

# OST & Score Movie, TV Show & Series, Game (Lossless) (Score) Бэтмен | возвращается | навсегда / Batman | Returns | Forever (by Danny Elfman, Elliot Goldenthal) (1989-2012 (1989-1995)) [FLAC (Tracks+.CUE), lossless] garry
1 | 1

0 | 2385

0

10.01.2012 02:18

# OST & Score Movie, TV Show & Series, Game (Lossless) (Score) Бэтмен / Batman: The Animated Series, Volume 1-4 (by Shirley Walker, Lolita Ritmanis and Michael McCuistion) (2008-2016 (1992-1993)) [FLAC (Tracks+.CUE), lossless] garry
0 | 0

0 | 3698

0

03.11.2012 19:18

OST & Score Movie, TV Show & Series, Game (Lossless) (Score) Бэтмен: Маска Фантазма / Batman: Mask of the Phantasm (by Shirley Walker) (1993-2009) [FLAC (Tracks+.CUE), lossless] garry
2 | 0

0 | 1329

0

11.10.2014 09:22

OST & Score Movie, TV Show & Series, Game (Lossless) (Score) Бэтмен: Нападение на Аркхэм / Batman: Assault on Arkham (by Robert J. Kral) (2014) [FLAC (Tracks+.CUE), lossless] garry
1 | 0

0 | 1111

1

20.10.2014 09:19

OST & Score Movie, TV Show & Series, Game (Lossless) (Score) Бэтмен будущего: Возвращение Джокера / Batman Beyond: Return of the Joker (by Kristopher Carter) (2000) [FLAC (Tracks+.CUE), lossless] garry
2 | 0

0 | 1038

1

08.05.2015 13:56

OST & Score Movie, TV Show & Series, Game (Lossless) (Score) Бэтмен и тайна женщины-летучей мыши / Batman: Mystery of the Batwoman (by Lolita Ritmanis) (2016 (2003)) [FLAC (Tracks+.CUE), lossless] garry
2 | 0

0 | 956

1

25.07.2016 10:29


Яндекс.Метрика powered by Sphinx


В Н И М А Н И Е
Сайт не распространяет и не хранит электронные версии произведений, а лишь бесплатно и без коммерческой выгоды (не требуя взамен платы,
SMS и т.д.) предоставляет доступ к создаваемому пользователями каталогу ссылок на торрент-файлы, которые содержат только списки хеш-сумм.
Убедительная просьба с жалобами обращаться напрямую к пользователю, разместившему торрент файл.

Вверх