Loading...
Error

(Jazz) Scott Wilkie - Home Again The Solo Piano Sessions (2008) [FLAC (Tracks+.CUE), Lossless]

Статистика раздачи
Размер:  170 MB   |    Зарегистрирован:  1 год 3 месяца   |    Скачан:  1 раз

Полного источника не было: 11 месяцев

Сидов:  0  |  0 KB/s  ]   Личеров:  0  |  0 KB/s  ]

* - сиды/пиры с внешних источников

   
 
Автор Сообщение

Бишеп Пол:Муж

14-Фев-2017 12:15

Scott Wilkie - Home Again The Solo Piano Sessions

Жанр: Jazz
Год выпуска: 2008
Источник: CD
Производитель диска: BeachMusic Studios
Аудиокодек: FLAC
Тип рипа: Tracks+.CUE
Битрейт аудио: lossless
Продолжительность:
00:49:18


Треклист:
01. The One
02. Home Again
03. Pier 39
04. Claire's Lullaby
05. What Lies Ahead
06. Song For Shari
07. Reverie
08. When We're Together
09. Rivertown
10. Whale Song

Код:

Exact Audio Copy V1.0 beta 3 from 29. August 2011

EAC extraction logfile from 25. November 2014, 20:25

Scott Wilkie / Home Again: The Solo Piano Sessions

Used drive  : MATSHITADVD-RAM UJ890AS   Adapter: 1  ID: 0

Read mode               : Secure
Utilize accurate stream : Yes
Defeat audio cache      : Yes
Make use of C2 pointers : No

Read offset correction                      : 102
Overread into Lead-In and Lead-Out          : No
Fill up missing offset samples with silence : Yes
Delete leading and trailing silent blocks   : No
Null samples used in CRC calculations       : Yes
Used interface                              : Installed external ASPI interface
Gap handling                                : Appended to previous track

Used output format              : User Defined Encoder
Selected bitrate                : 1024 kBit/s
Quality                         : High
Add ID3 tag                     : No
Command line compressor         : C:\Program Files (x86)\Exact Audio Copy\Flac\flac.exe
Additional command line options : -V -8 -T "Genre=%genre%" -T "Artist=%artist%" -T "Title=%title%" -T "Album=%albumtitle%" -T "Date=%year%" -T "Tracknumber=%tracknr%" -T "Comment=EAC1.0b3 FLAC -8" %source%

TOC of the extracted CD

     Track |   Start  |  Length  | Start sector | End sector
    ---------------------------------------------------------
        1  |  0:00.00 |  5:15.02 |         0    |    23626   
        2  |  5:15.02 |  5:05.08 |     23627    |    46509   
        3  | 10:20.10 |  5:07.67 |     46510    |    69601   
        4  | 15:28.02 |  3:28.42 |     69602    |    85243   
        5  | 18:56.44 |  3:53.13 |     85244    |   102731   
        6  | 22:49.57 |  4:26.43 |    102732    |   122724   
        7  | 27:16.25 |  4:45.11 |    122725    |   144110   
        8  | 32:01.36 |  5:34.35 |    144111    |   169195   
        9  | 37:35.71 |  5:57.64 |    169196    |   196034   
       10  | 43:33.60 |  5:44.30 |    196035    |   221864   

Track  1

     Filename D:\MUSIC\WAV\01. The One.wav

     Pre-gap length  0:00:02.00

     Peak level 88.8 %
     Extraction speed 1.4 X
     Track quality 99.9 %
     Test CRC 2A64F63A
     Copy CRC 2A64F63A
     Copy OK

Track  2

     Filename D:\MUSIC\WAV\02. Home Again.wav

     Peak level 100.0 %
     Extraction speed 1.6 X
     Track quality 99.9 %
     Test CRC D9B5FD25
     Copy CRC D9B5FD25
     Copy OK

Track  3

     Filename D:\MUSIC\WAV\03. Pier 39.wav

     Peak level 94.8 %
     Extraction speed 1.9 X
     Track quality 100.0 %
     Test CRC 8A36A0EB
     Copy CRC 8A36A0EB
     Copy OK

Track  4

     Filename D:\MUSIC\WAV\04. Claire's Lullaby.wav

     Peak level 81.1 %
     Extraction speed 1.9 X
     Track quality 100.0 %
     Test CRC 91FDCB4F
     Copy CRC 91FDCB4F
     Copy OK

Track  5

     Filename D:\MUSIC\WAV\05. What Lies Ahead.wav

     Peak level 83.8 %
     Extraction speed 2.1 X
     Track quality 100.0 %
     Test CRC 3ED7F695
     Copy CRC 3ED7F695
     Copy OK

Track  6

     Filename D:\MUSIC\WAV\06. Song For Shari.wav

     Peak level 88.2 %
     Extraction speed 2.0 X
     Track quality 99.9 %
     Test CRC 9CE5F2C3
     Copy CRC 9CE5F2C3
     Copy OK

Track  7

     Filename D:\MUSIC\WAV\07. Reverie.wav

     Peak level 81.7 %
     Extraction speed 2.3 X
     Track quality 100.0 %
     Test CRC 0036DFB8
     Copy CRC 0036DFB8
     Copy OK

Track  8

     Filename D:\MUSIC\WAV\08. When We're Together.wav

     Peak level 85.8 %
     Extraction speed 2.5 X
     Track quality 100.0 %
     Test CRC 5F63AAA3
     Copy CRC 5F63AAA3
     Copy OK

Track  9

     Filename D:\MUSIC\WAV\09. Rivertown.wav

     Peak level 87.5 %
     Extraction speed 2.7 X
     Track quality 100.0 %
     Test CRC 46266899
     Copy CRC 46266899
     Copy OK

Track 10

     Filename D:\MUSIC\WAV\10. Whale Song.wav

     Peak level 93.5 %
     Extraction speed 2.8 X
     Track quality 100.0 %
     Test CRC EA5A46AC
     Copy CRC EA5A46AC
     Copy OK

No errors occurred

End of status report

==== Log checksum A765E091C89713588A8129A507692325190BF506BDF87071F91019D35926B6C0 ====

Код:

REM GENRE Jazz
REM DATE 2008
REM DISCID 7B0B8E0A
REM COMMENT "ExactAudioCopy v1.0b3"
PERFORMER "Scott Wilkie"
TITLE "Home Again: The Solo Piano Sessions"
FILE "01. The One.wav" WAVE
  TRACK 01 AUDIO
    TITLE "The One"
    PERFORMER "Scott Wilkie"
    INDEX 01 00:00:00
FILE "02. Home Again.wav" WAVE
  TRACK 02 AUDIO
    TITLE "Home Again"
    PERFORMER "Scott Wilkie"
    INDEX 01 00:00:00
FILE "03. Pier 39.wav" WAVE
  TRACK 03 AUDIO
    TITLE "Pier 39"
    PERFORMER "Scott Wilkie"
    INDEX 01 00:00:00
FILE "04. Claire's Lullaby.wav" WAVE
  TRACK 04 AUDIO
    TITLE "Claire's Lullaby"
    PERFORMER "Scott Wilkie"
    INDEX 01 00:00:00
FILE "05. What Lies Ahead.wav" WAVE
  TRACK 05 AUDIO
    TITLE "What Lies Ahead"
    PERFORMER "Scott Wilkie"
    INDEX 01 00:00:00
FILE "06. Song For Shari.wav" WAVE
  TRACK 06 AUDIO
    TITLE "Song For Shari"
    PERFORMER "Scott Wilkie"
    INDEX 01 00:00:00
FILE "07. Reverie.wav" WAVE
  TRACK 07 AUDIO
    TITLE "Reverie"
    PERFORMER "Scott Wilkie"
    INDEX 01 00:00:00
FILE "08. When We're Together.wav" WAVE
  TRACK 08 AUDIO
    TITLE "When We're Together"
    PERFORMER "Scott Wilkie"
    INDEX 01 00:00:00
FILE "09. Rivertown.wav" WAVE
  TRACK 09 AUDIO
    TITLE "Rivertown"
    PERFORMER "Scott Wilkie"
    INDEX 01 00:00:00
FILE "10. Whale Song.wav" WAVE
  TRACK 10 AUDIO
    TITLE "Whale Song"
    PERFORMER "Scott Wilkie"
    INDEX 01 00:00:00

Код:

-----------------------

DON'T MODIFY THIS FILE

-----------------------

PERFORMER: auCDtect Task Manager, ver. 1.6.0 RC1 build 1.6.0.1
Copyright (c) 2008-2010 y-soft. All rights reserved
http://y-soft.org

ANALYZER: auCDtect: CD records authenticity detector, version 0.8.2
Copyright (c) 2004 Oleg Berngardt. All rights reserved.
Copyright (c) 2004 Alexander Djourik. All rights reserved.

FILE: 10. Whale Song.FLAC
  Size: 20568060 Hash: 4EEA4FF6F38609DE43C4EF5C7B686814 Accuracy: -m0
  Conclusion: CDDA 99%
  Signature: 458DFBB3E0569920E00DA8B437AD5B83C3C8F188
FILE: 09. Rivertown.FLAC
  Size: 22952999 Hash: 0BAB7E2ECB64B044CE94BE55F400B1B9 Accuracy: -m0
  Conclusion: CDDA 100%
  Signature: 81B0714E7293B7D10EF541B99F987B45F43E31EE
FILE: 08. When We're Together.FLAC
  Size: 19489761 Hash: E9B194E44D040FF1961D96030A0657B7 Accuracy: -m0
  Conclusion: CDDA 100%
  Signature: A198FE370B14086050E204238C2E1EC43EB1EFB7
FILE: 07. Reverie.FLAC
  Size: 16417168 Hash: 8B41FDEF8535D47A5B728D3D75DB5547 Accuracy: -m0
  Conclusion: CDDA 99%
  Signature: 7436473A84AD2E38D0A6F7AE7A2DD6AF647BC8C9
FILE: 06. Song For Shari.FLAC
  Size: 16129354 Hash: 6960CC30960B1665FEA1C067565788AE Accuracy: -m0
  Conclusion: CDDA 100%
  Signature: 7C7FB2DED9486F5B7B5CA93CA916856D81492F57
FILE: 05. What Lies Ahead.FLAC
  Size: 14383508 Hash: 59CC9E6C024DAE4AE9B6A369D4FFBCE9 Accuracy: -m0
  Conclusion: CDDA 100%
  Signature: 5C8A68C64E9ED6FAEED4738FEEB6CA6CAF141BB2
FILE: 04. Claire's Lullaby.FLAC
  Size: 12125886 Hash: EC16B295310BC08E0CAEF6AD94C2A5ED Accuracy: -m0
  Conclusion: CDDA 100%
  Signature: 693029F7047AEF4E057400105664A673C1CC90D9
FILE: 03. Pier 39.FLAC
  Size: 17887321 Hash: AA57C0312222420D5FD1D0D69AEA66A4 Accuracy: -m0
  Conclusion: CDDA 100%
  Signature: 0C62E68D1637B6857CD533F97FF41382506CCE95
FILE: 02. Home Again.FLAC
  Size: 19561015 Hash: E044F7E72AC288621290A1A3C4C9F891 Accuracy: -m0
  Conclusion: CDDA 92%
  Signature: 07D64491E96C8D42B68C55FFCF951BA5269A5EFB
FILE: 01. The One.FLAC
  Size: 18233996 Hash: 46532D5FCC2CD6FFD47899566CFD0113 Accuracy: -m0
  Conclusion: CDDA 100%
  Signature: FB74719034CEF0205894009EF822DF6A28F57105

Этот торрент недоступен для скачивания без регистрации, однако доступен по публичной magnet-ссылке (источники с публичных трекеров). Перед использованием ссылки прочтите, пожалуйста Пользовательское соглашение, а также как можно дольше оставайтесь на раздаче! Для того, чтобы скачать сам торрент-файл (который видит больше источников), а также для того, чтобы поблагодарить релизера, вам необходимо зарегистрироваться. Если регистрироваться лень - вы можете также попробовать скачать релиз по нашим партнерским ссылкам ниже. Кроме того, зарегистрированным пользователям не показывается всплывающая реклама при скачивании.

[underverse.me].t78295.torrent
Трекер: Зарегистрирован   [ 14.02.2017 12:15 ]  

Статус: проверено (by Бишеп at 14.02.2017 12:16)
Поблагодарили: пока никто не поблагодарил...
Тип торрента: публичный - доступные источники с открытых трекеров: 
Размер: 170 MB (занимает 0,04 DVDR, для записи нужно 1 болванка DVDR/RW)
 
 

Яндекс.Метрика powered by Sphinx


В Н И М А Н И Е
Сайт не распространяет и не хранит электронные версии произведений, а лишь бесплатно и без коммерческой выгоды (не требуя взамен платы,
SMS и т.д.) предоставляет доступ к создаваемому пользователями каталогу ссылок на торрент-файлы, которые содержат только списки хеш-сумм.
Убедительная просьба с жалобами обращаться напрямую к пользователю, разместившему торрент файл.

Вверх