Loading...
Error

(Score) Red Dead Redemption | Undead Nightmare (by Bill Elm and Woody Jackson) (2010-2011) [FLAC (Tracks+.CUE), lossless]

Статистика раздачи
Размер:  684 MB   |    Зарегистрирован:  4 месяца 28 дней   |    Скачан:  0 раз

Полного источника не было: 15 часов

Сидов:  0  |  0 KB/s  ]   Личеров:  0  |  0 KB/s  ]

* - сиды/пиры с внешних источников

   
 
Автор Сообщение

garry Пол:Муж

07-Фев-2017 11:51

Red Dead Redemption | Undead Nightmare

Жанр: Score
Год выпуска: 2010
Источник: CD
Производитель: Rockstar Games, 36886-1
Аудиокодек: FLAC
Тип рипа: Tracks+.CUE
Битрейт: lossless
Продолжительность: 01:15:24
01 - Bill Elm & Woody Jackson - Born Unto Trouble
02 - Bill Elm & Woody Jackson - The Shootist
03 - Bill Elm & Woody Jackson - Dead End Alley
04 - Bill Elm & Woody Jackson - Horseplay
05 - Bill Elm & Woody Jackson - Luz y Sombra
06 - Bill Elm & Woody Jackson - El Club de los Cuerpos
07 - Bill Elm & Woody Jackson - Estancia
08 - Bill Elm & Woody Jackson - (Theme From) Red Dead Redemption
09 - Bill Elm & Woody Jackson - Triggernometry
10 - Bill Elm & Woody Jackson - Gunplay
11 - Bill Elm & Woody Jackson - Redemption In Dub
12 - Bill Elm & Woody Jackson - Muertos Rojos (The Gunslinger's Lament)
13 - Bill Elm & Woody Jackson - The Outlaw's Return
14 - Bill Elm & Woody Jackson - Exodus In America
15 - Bill Elm & Woody Jackson - Already Dead
16 - José González - Far Away
17 - Jamie Lidell - Compass (Red Dead On Arrival Version)
18 - Ashtar Command - Deadman's Gun
19 - William Elliot Whitmore - Bury Me Not On the Lone Prairie

Код:

Exact Audio Copy V1.0 beta 2 from 29. April 2011

EAC extraction logfile from 7. May 2012, 15:14

Bill Elm and Woody Jackson / Red Dead Redemption Soundtrack

Used drive  : TSSTcorpCDDVDW SH-S222A   Adapter: 4  ID: 0

Read mode               : Secure
Utilize accurate stream : Yes
Defeat audio cache      : Yes
Make use of C2 pointers : No

Read offset correction                      : 6
Overread into Lead-In and Lead-Out          : No
Fill up missing offset samples with silence : Yes
Delete leading and trailing silent blocks   : No
Null samples used in CRC calculations       : Yes
Used interface                              : Native Win32 interface for Win NT & 2000
Gap handling                                : Appended to previous track

Used output format              : User Defined Encoder
Selected bitrate                : 128 kBit/s
Quality                         : High
Add ID3 tag                     : No
Command line compressor         : C:\Program Files (x86)\Exact Audio Copy\Flac\flac.exe
Additional command line options : -V -8 -T "Genre=%genre%" -T "Artist=%artist%" -T "Title=%title%" -T "Album=%albumtitle%" -T "Date=%year%" -T "Tracknumber=%tracknr%" -T "Comment=%comment%" %source%

TOC of the extracted CD

     Track |   Start  |  Length  | Start sector | End sector
    ---------------------------------------------------------
        1  |  0:00.00 |  3:12.28 |         0    |    14427   
        2  |  3:12.28 |  4:17.31 |     14428    |    33733   
        3  |  7:29.59 |  2:06.06 |     33734    |    43189   
        4  |  9:35.65 |  3:49.37 |     43190    |    60401   
        5  | 13:25.27 |  5:19.20 |     60402    |    84346   
        6  | 18:44.47 |  6:24.03 |     84347    |   113149   
        7  | 25:08.50 |  2:02.05 |    113150    |   122304   
        8  | 27:10.55 |  5:38.18 |    122305    |   147672   
        9  | 32:48.73 |  5:23.60 |    147673    |   171957   
       10  | 38:12.58 |  1:28.02 |    171958    |   178559   
       11  | 39:40.60 |  2:09.59 |    178560    |   188293   
       12  | 41:50.44 |  5:50.51 |    188294    |   214594   
       13  | 47:41.20 |  6:54.05 |    214595    |   245649   
       14  | 54:35.25 |  4:59.18 |    245650    |   268092   
       15  | 59:34.43 |  1:31.29 |    268093    |   274946   
       16  | 61:05.72 |  4:39.51 |    274947    |   295922   
       17  | 65:45.48 |  2:59.15 |    295923    |   309362   
       18  | 68:44.63 |  4:15.30 |    309363    |   328517   
       19  | 73:00.18 |  2:24.04 |    328518    |   339321   

Track  1

     Filename C:\Spybionic\Red Dead Redemption Original Soundtrack - 2010 - Bill Elm and Woody Jackson\01. Born Unto Trouble.wav

     Pre-gap length  0:00:02.00

     Peak level 98.8 %
     Extraction speed 4.7 X
     Track quality 100.0 %
     Test CRC 0C71EA66
     Copy CRC 0C71EA66
     Accurately ripped (confidence 2)  [44B4A5AE]  (AR v1)
     Copy OK

Track  2

     Filename C:\Spybionic\Red Dead Redemption Original Soundtrack - 2010 - Bill Elm and Woody Jackson\02. The Shootist.wav

     Peak level 98.9 %
     Extraction speed 5.3 X
     Track quality 100.0 %
     Test CRC 9AF196F2
     Copy CRC 9AF196F2
     Accurately ripped (confidence 2)  [3E4BE383]  (AR v1)
     Copy OK

Track  3

     Filename C:\Spybionic\Red Dead Redemption Original Soundtrack - 2010 - Bill Elm and Woody Jackson\03. Dead End Alley.wav

     Peak level 98.8 %
     Extraction speed 5.0 X
     Track quality 100.0 %
     Test CRC 75DC05FF
     Copy CRC 75DC05FF
     Accurately ripped (confidence 2)  [5E0A00DE]  (AR v1)
     Copy OK

Track  4

     Filename C:\Spybionic\Red Dead Redemption Original Soundtrack - 2010 - Bill Elm and Woody Jackson\04. Horseplay.wav

     Peak level 98.9 %
     Extraction speed 5.8 X
     Track quality 100.0 %
     Test CRC E49F1FFE
     Copy CRC E49F1FFE
     Accurately ripped (confidence 2)  [4F99B0E2]  (AR v1)
     Copy OK

Track  5

     Filename C:\Spybionic\Red Dead Redemption Original Soundtrack - 2010 - Bill Elm and Woody Jackson\05. Luz y Sombra.wav

     Peak level 98.9 %
     Extraction speed 6.5 X
     Track quality 100.0 %
     Test CRC 335C9E03
     Copy CRC 335C9E03
     Accurately ripped (confidence 2)  [1F642C23]  (AR v1)
     Copy OK

Track  6

     Filename C:\Spybionic\Red Dead Redemption Original Soundtrack - 2010 - Bill Elm and Woody Jackson\06. El Club de los Cuerpos.wav

     Peak level 98.9 %
     Extraction speed 7.1 X
     Track quality 100.0 %
     Test CRC EAB44E2D
     Copy CRC EAB44E2D
     Accurately ripped (confidence 2)  [010C68CD]  (AR v1)
     Copy OK

Track  7

     Filename C:\Spybionic\Red Dead Redemption Original Soundtrack - 2010 - Bill Elm and Woody Jackson\07. Estancia.wav

     Peak level 98.9 %
     Extraction speed 6.1 X
     Track quality 100.0 %
     Test CRC 9F4C5FE2
     Copy CRC 9F4C5FE2
     Accurately ripped (confidence 2)  [8F56BC71]  (AR v1)
     Copy OK

Track  8

     Filename C:\Spybionic\Red Dead Redemption Original Soundtrack - 2010 - Bill Elm and Woody Jackson\08. (Theme from) Red Dead Redemption.wav

     Peak level 98.9 %
     Extraction speed 7.6 X
     Track quality 100.0 %
     Test CRC 0EDD8A12
     Copy CRC 0EDD8A12
     Accurately ripped (confidence 2)  [090195DA]  (AR v1)
     Copy OK

Track  9

     Filename C:\Spybionic\Red Dead Redemption Original Soundtrack - 2010 - Bill Elm and Woody Jackson\09. Triggernometry.wav

     Peak level 98.9 %
     Extraction speed 7.9 X
     Track quality 100.0 %
     Test CRC 7183B10F
     Copy CRC 7183B10F
     Accurately ripped (confidence 2)  [63DF60B8]  (AR v1)
     Copy OK

Track 10

     Filename C:\Spybionic\Red Dead Redemption Original Soundtrack - 2010 - Bill Elm and Woody Jackson\10. Gunplay.wav

     Peak level 98.9 %
     Extraction speed 6.2 X
     Track quality 100.0 %
     Test CRC 6CC80F6D
     Copy CRC 6CC80F6D
     Accurately ripped (confidence 2)  [6B63CE85]  (AR v1)
     Copy OK

Track 11

     Filename C:\Spybionic\Red Dead Redemption Original Soundtrack - 2010 - Bill Elm and Woody Jackson\11. Redemption in Dub.wav

     Peak level 98.9 %
     Extraction speed 5.8 X
     Track quality 99.9 %
     Test CRC 73CC6C27
     Copy CRC 73CC6C27
     Accurately ripped (confidence 2)  [84DBC9C1]  (AR v1)
     Copy OK

Track 12

     Filename C:\Spybionic\Red Dead Redemption Original Soundtrack - 2010 - Bill Elm and Woody Jackson\12. Muertos Rojos (aka The Gunslinger's Lament).wav

     Peak level 98.9 %
     Extraction speed 8.5 X
     Track quality 100.0 %
     Test CRC CCF876DF
     Copy CRC CCF876DF
     Accurately ripped (confidence 2)  [CA2C7025]  (AR v1)
     Copy OK

Track 13

     Filename C:\Spybionic\Red Dead Redemption Original Soundtrack - 2010 - Bill Elm and Woody Jackson\13. The Outlaw's Return.wav

     Peak level 98.9 %
     Extraction speed 9.0 X
     Track quality 100.0 %
     Test CRC 2886B809
     Copy CRC 2886B809
     Accurately ripped (confidence 2)  [47B2872A]  (AR v1)
     Copy OK

Track 14

     Filename C:\Spybionic\Red Dead Redemption Original Soundtrack - 2010 - Bill Elm and Woody Jackson\14. Exodus in America.wav

     Peak level 98.9 %
     Extraction speed 9.1 X
     Track quality 100.0 %
     Test CRC C13DF297
     Copy CRC C13DF297
     Accurately ripped (confidence 2)  [476B7471]  (AR v1)
     Copy OK

Track 15

     Filename C:\Spybionic\Red Dead Redemption Original Soundtrack - 2010 - Bill Elm and Woody Jackson\15. Already Dead.wav

     Peak level 98.9 %
     Extraction speed 7.4 X
     Track quality 100.0 %
     Test CRC ED3D49A4
     Copy CRC ED3D49A4
     Accurately ripped (confidence 2)  [4E6C18A1]  (AR v1)
     Copy OK

Track 16

     Filename C:\Spybionic\Red Dead Redemption Original Soundtrack - 2010 - Bill Elm and Woody Jackson\16. Far Away.wav

     Peak level 98.9 %
     Extraction speed 9.3 X
     Track quality 100.0 %
     Test CRC A523A69B
     Copy CRC A523A69B
     Accurately ripped (confidence 2)  [40588CC2]  (AR v1)
     Copy OK

Track 17

     Filename C:\Spybionic\Red Dead Redemption Original Soundtrack - 2010 - Bill Elm and Woody Jackson\17. Compass (Red Dead On Arrival Version).wav

     Peak level 98.9 %
     Extraction speed 9.0 X
     Track quality 100.0 %
     Test CRC 9906E8E1
     Copy CRC 9906E8E1
     Accurately ripped (confidence 2)  [13F53D43]  (AR v1)
     Copy OK

Track 18

     Filename C:\Spybionic\Red Dead Redemption Original Soundtrack - 2010 - Bill Elm and Woody Jackson\18. Deadman's Gun.wav

     Peak level 98.9 %
     Extraction speed 9.6 X
     Track quality 100.0 %
     Test CRC 49DAA142
     Copy CRC 49DAA142
     Accurately ripped (confidence 2)  [D0775D03]  (AR v1)
     Copy OK

Track 19

     Filename C:\Spybionic\Red Dead Redemption Original Soundtrack - 2010 - Bill Elm and Woody Jackson\19. Bury Me Not On The Lone Prairie.wav

     Peak level 98.9 %
     Extraction speed 8.9 X
     Track quality 100.0 %
     Test CRC EA5EFDBF
     Copy CRC EA5EFDBF
     Accurately ripped (confidence 2)  [DDA2590A]  (AR v1)
     Copy OK

All tracks accurately ripped

No errors occurred

End of status report

==== Log checksum 5FCA1BD6F754CF91765FEBDA38984367E89987B488997C451F733E257CB391FB ====

Код:

REM GENRE Game
REM DATE 2010
REM DISCID 1B11AC13
REM COMMENT "ExactAudioCopy v1.0b2"
PERFORMER "Bill Elm and Woody Jackson"
TITLE "Red Dead Redemption Soundtrack "
FILE "01 - Born unto Trouble.wav" WAVE
  TRACK 01 AUDIO
    TITLE "Born unto Trouble"
    PERFORMER "Bill Elm and Woody Jackson"
    INDEX 01 00:00:00
FILE "02 - The Shootist.wav" WAVE
  TRACK 02 AUDIO
    TITLE "The Shootist"
    PERFORMER "Bill Elm and Woody Jackson"
    INDEX 01 00:00:00
FILE "03 - Dead End Alley.wav" WAVE
  TRACK 03 AUDIO
    TITLE "Dead End Alley"
    PERFORMER "Bill Elm and Woody Jackson"
    INDEX 01 00:00:00
FILE "04 - Horseplay.wav" WAVE
  TRACK 04 AUDIO
    TITLE "Horseplay"
    PERFORMER "Bill Elm and Woody Jackson"
    INDEX 01 00:00:00
FILE "05 - Luz y Sombra.wav" WAVE
  TRACK 05 AUDIO
    TITLE "Luz y Sombra"
    PERFORMER "Bill Elm and Woody Jackson"
    INDEX 01 00:00:00
FILE "06 - El Club de los Cuerpos.wav" WAVE
  TRACK 06 AUDIO
    TITLE "El Club de los Cuerpos"
    PERFORMER "Bill Elm and Woody Jackson"
    INDEX 01 00:00:00
FILE "07 - Estancia.wav" WAVE
  TRACK 07 AUDIO
    TITLE "Estancia"
    PERFORMER "Bill Elm and Woody Jackson"
    INDEX 01 00:00:00
FILE "08 - (Theme from) Red Dead Redemption.wav" WAVE
  TRACK 08 AUDIO
    TITLE "(Theme from) Red Dead Redemption"
    PERFORMER "Bill Elm and Woody Jackson"
    INDEX 01 00:00:00
FILE "09 - Triggernometry.wav" WAVE
  TRACK 09 AUDIO
    TITLE "Triggernometry"
    PERFORMER "Bill Elm and Woody Jackson"
    INDEX 01 00:00:00
FILE "10 - Gunplay.wav" WAVE
  TRACK 10 AUDIO
    TITLE "Gunplay"
    PERFORMER "Bill Elm and Woody Jackson"
    INDEX 01 00:00:00
FILE "11 - Redemption in Dub.wav" WAVE
  TRACK 11 AUDIO
    TITLE "Redemption in Dub"
    PERFORMER "Bill Elm and Woody Jackson"
    INDEX 01 00:00:00
FILE "12 - Muertos Rojos (aka The Gunslinger's Lament).wav" WAVE
  TRACK 12 AUDIO
    TITLE "Muertos Rojos (aka The Gunslinger's Lament)"
    PERFORMER "Bill Elm and Woody Jackson"
    INDEX 01 00:00:00
FILE "13 - The Outlaw's Return.wav" WAVE
  TRACK 13 AUDIO
    TITLE "The Outlaw's Return"
    PERFORMER "Bill Elm and Woody Jackson"
    INDEX 01 00:00:00
FILE "14 - Exodus in America.wav" WAVE
  TRACK 14 AUDIO
    TITLE "Exodus in America"
    PERFORMER "Bill Elm and Woody Jackson"
    INDEX 01 00:00:00
FILE "15 - Already Dead.wav" WAVE
  TRACK 15 AUDIO
    TITLE "Already Dead"
    PERFORMER "Bill Elm and Woody Jackson"
    INDEX 01 00:00:00
FILE "16 - Far Away (performed by Jose Gonzalez).wav" WAVE
  TRACK 16 AUDIO
    TITLE "Far Away (performed by Jose Gonzalez)"
    PERFORMER "Jose Gonzalez"
    INDEX 01 00:00:00
FILE "17 - Compass (Red Dead on Arrival Version) [performed by Jamie Lidell].wav" WAVE
  TRACK 17 AUDIO
    TITLE "Compass (Red Dead on Arrival Version)"
    PERFORMER "Jamie Lidell"
    INDEX 01 00:00:00
FILE "18 - Deadman's Gun (performed by Ashtar Command).wav" WAVE
  TRACK 18 AUDIO
    TITLE "Deadman's Gun"
    PERFORMER "Ashtar Command"
    INDEX 01 00:00:00
FILE "19 - Bury Me not on the Lone Prairie (performed by William Elliott Whitmore).wav" WAVE
  TRACK 19 AUDIO
    TITLE "Bury Me not on the Lone Prairie"
    PERFORMER "William Elliott Whitmore"
    INDEX 01 00:00:00

Жанр: Score
Год выпуска: 2011
Источник: CD
Производитель: Rockstar Games, 36997-1
Аудиокодек: FLAC
Тип рипа: Tracks+.CUE
Битрейт: lossless
Продолжительность: 00:49:03
01 - Bill Elm and Woody Jackson - Undead Nightmare
02 - Bill Elm and Woody Jackson - Zombie Corpseplay
03 - Bill Elm and Woody Jackson - Get Back in that Hole, Partner
04 - Bill Elm and Woody Jackson - Army of Undead
05 - Bill Elm and Woody Jackson - Chupacabra
06 - Bill Elm and Woody Jackson - Zombie Peyote
07 - Bill Elm and Woody Jackson - Ojo Muerto
08 - Bill Elm and Woody Jackson - Blunderbuss Blues
09 - Bill Elm and Woody Jackson - Four Horses of the Apocalypse
10 - Bill Elm and Woody Jackson - Blackwater, U.S.A.
11 - Bill Elm and Woody Jackson - Undead Redemption
12 - Bill Elm and Woody Jackson - Missing Souls
13 - Bill Elm and Woody Jackson - A Man Ready for Anything
14 - Bill Elm and Woody Jackson - Showdown at Escalera
15 - Kreeps - Bad Voodoo
16 - Kreeps - Dead Man Walking
17 - Kreeps - Dead Sled
18 - Misterio - Stinkin' Zombies

Код:

Exact Audio Copy V1.3 from 2. September 2016

EAC extraction logfile from 23. January 2017, 1:44

Bill Elm and Woody Jackson / Red Dead Redemption Undead Nightmare

Used drive  : NECVMWarVMware SATA CD01   Adapter: 1  ID: 0

Read mode               : Secure
Utilize accurate stream : Yes
Defeat audio cache      : Yes
Make use of C2 pointers : No

Read offset correction                      : 6
Overread into Lead-In and Lead-Out          : No
Fill up missing offset samples with silence : Yes
Delete leading and trailing silent blocks   : No
Null samples used in CRC calculations       : Yes
Used interface                              : Native Win32 interface for Win NT & 2000
Gap handling                                : Appended to previous track

Used output format              : User Defined Encoder
Selected bitrate                : 1024 kBit/s
Quality                         : High
Add ID3 tag                     : No
Command line compressor         : C:\Program Files (x86)\Exact Audio Copy\Flac\flac.exe
Additional command line options : -8 -e -p -V -T "ARTIST=%artist%" -T "TITLE=%title%" -T "ALBUM=%albumtitle%" -T "DATE=%year%" -T "TRACKNUMBER=%tracknr%" -T "GENRE=%genre%" -T "PERFORMER=%albuminterpret%" -T "COMPOSER=%composer%" %haslyrics%--tag-from-file=LYRICS="%lyricsfile%"%haslyrics% -T "ALBUMARTIST=%albumartist%" -T "DISCNUMBER=%cdnumber%" -T "TOTALDISCS=%totalcds%" -T "TOTALTRACKS=%numtracks%" -T "COMMENT=%comment%" %source% -o %dest%

TOC of the extracted CD

     Track |   Start  |  Length  | Start sector | End sector
    ---------------------------------------------------------
        1  |  0:00.00 |  1:07.04 |         0    |     5028   
        2  |  1:07.04 |  2:53.51 |      5029    |    18054   
        3  |  4:00.55 |  2:36.27 |     18055    |    29781   
        4  |  6:37.07 |  2:23.19 |     29782    |    40525   
        5  |  9:00.26 |  3:19.13 |     40526    |    55463   
        6  | 12:19.39 |  1:41.37 |     55464    |    63075   
        7  | 14:01.01 |  1:49.69 |     63076    |    71319   
        8  | 15:50.70 |  1:58.29 |     71320    |    80198   
        9  | 17:49.24 |  5:03.25 |     80199    |   102948   
       10  | 22:52.49 |  5:21.29 |    102949    |   127052   
       11  | 28:14.03 |  1:42.05 |    127053    |   134707   
       12  | 29:56.08 |  1:32.10 |    134708    |   141617   
       13  | 31:28.18 |  1:57.09 |    141618    |   150401   
       14  | 33:25.27 |  2:43.69 |    150402    |   162695   
       15  | 36:09.21 |  3:41.34 |    162696    |   179304   
       16  | 39:50.55 |  3:52.19 |    179305    |   196723   
       17  | 43:42.74 |  2:09.41 |    196724    |   206439   
       18  | 45:52.40 |  3:11.17 |    206440    |   220781   

Track  1

     Filename C:\eac_rips\Bill Elm and Woody Jackson - Red Dead Redemption Undead Nightmare (2010) [FLAC]\01 - Bill Elm and Woody Jackson - Undead Nightmare.wav

     Pre-gap length  0:00:02.00

     Peak level 98.9 %
     Extraction speed 0.9 X
     Track quality 99.8 %
     Test CRC 6FF40498
     Copy CRC 6FF40498
     Accurately ripped (confidence 2)  [B26C43A0]  (AR v2)
     Copy OK

Track  2

     Filename C:\eac_rips\Bill Elm and Woody Jackson - Red Dead Redemption Undead Nightmare (2010) [FLAC]\02 - Bill Elm and Woody Jackson - Zombie Corpseplay.wav

     Peak level 99.0 %
     Extraction speed 1.0 X
     Track quality 100.0 %
     Test CRC 7F29CC93
     Copy CRC 7F29CC93
     Accurately ripped (confidence 2)  [09526B14]  (AR v2)
     Copy OK

Track  3

     Filename C:\eac_rips\Bill Elm and Woody Jackson - Red Dead Redemption Undead Nightmare (2010) [FLAC]\03 - Bill Elm and Woody Jackson - Get In That Hole, Partner.wav

     Peak level 100.0 %
     Extraction speed 0.9 X
     Track quality 99.9 %
     Test CRC C8C50205
     Copy CRC C8C50205
     Accurately ripped (confidence 2)  [4632775E]  (AR v2)
     Copy OK

Track  4

     Filename C:\eac_rips\Bill Elm and Woody Jackson - Red Dead Redemption Undead Nightmare (2010) [FLAC]\04 - Bill Elm and Woody Jackson - Army Of Undead.wav

     Peak level 98.8 %
     Extraction speed 0.9 X
     Track quality 100.0 %
     Test CRC F55A2D39
     Copy CRC F55A2D39
     Accurately ripped (confidence 2)  [3061E46D]  (AR v2)
     Copy OK

Track  5

     Filename C:\eac_rips\Bill Elm and Woody Jackson - Red Dead Redemption Undead Nightmare (2010) [FLAC]\05 - Bill Elm and Woody Jackson - Chupacabra.wav

     Peak level 98.8 %
     Extraction speed 1.0 X
     Track quality 99.9 %
     Test CRC 2FD28D6B
     Copy CRC 2FD28D6B
     Accurately ripped (confidence 2)  [2E704F56]  (AR v2)
     Copy OK

Track  6

     Filename C:\eac_rips\Bill Elm and Woody Jackson - Red Dead Redemption Undead Nightmare (2010) [FLAC]\06 - Bill Elm and Woody Jackson - Zombie Peyote.wav

     Peak level 98.8 %
     Extraction speed 1.1 X
     Track quality 100.0 %
     Test CRC F38AE6CC
     Copy CRC F38AE6CC
     Accurately ripped (confidence 2)  [31A6C878]  (AR v2)
     Copy OK

Track  7

     Filename C:\eac_rips\Bill Elm and Woody Jackson - Red Dead Redemption Undead Nightmare (2010) [FLAC]\07 - Bill Elm and Woody Jackson - Ojo Muerto.wav

     Peak level 99.1 %
     Extraction speed 1.1 X
     Track quality 100.0 %
     Test CRC 85D329D6
     Copy CRC 85D329D6
     Accurately ripped (confidence 2)  [7E7867DF]  (AR v2)
     Copy OK

Track  8

     Filename C:\eac_rips\Bill Elm and Woody Jackson - Red Dead Redemption Undead Nightmare (2010) [FLAC]\08 - Bill Elm and Woody Jackson - Blunderbuss Blues.wav

     Peak level 98.8 %
     Extraction speed 1.2 X
     Track quality 100.0 %
     Test CRC 32E36437
     Copy CRC 32E36437
     Accurately ripped (confidence 2)  [02FF5A90]  (AR v2)
     Copy OK

Track  9

     Filename C:\eac_rips\Bill Elm and Woody Jackson - Red Dead Redemption Undead Nightmare (2010) [FLAC]\09 - Bill Elm and Woody Jackson - Four Horses Of The Apocalypse.wav

     Peak level 98.9 %
     Extraction speed 1.5 X
     Track quality 100.0 %
     Test CRC FE4091C9
     Copy CRC FE4091C9
     Accurately ripped (confidence 2)  [37143DBF]  (AR v2)
     Copy OK

Track 10

     Filename C:\eac_rips\Bill Elm and Woody Jackson - Red Dead Redemption Undead Nightmare (2010) [FLAC]\10 - Bill Elm and Woody Jackson - Blackwater, U.S.A..wav

     Peak level 98.9 %
     Extraction speed 1.5 X
     Track quality 99.9 %
     Test CRC AB84E065
     Copy CRC AB84E065
     Accurately ripped (confidence 2)  [B59741ED]  (AR v2)
     Copy OK

Track 11

     Filename C:\eac_rips\Bill Elm and Woody Jackson - Red Dead Redemption Undead Nightmare (2010) [FLAC]\11 - Bill Elm and Woody Jackson - Undead Redemption.wav

     Peak level 98.8 %
     Extraction speed 1.4 X
     Track quality 100.0 %
     Test CRC B10F0D53
     Copy CRC B10F0D53
     Accurately ripped (confidence 2)  [E709632D]  (AR v2)
     Copy OK

Track 12

     Filename C:\eac_rips\Bill Elm and Woody Jackson - Red Dead Redemption Undead Nightmare (2010) [FLAC]\12 - Bill Elm and Woody Jackson - Missing Souls.wav

     Peak level 98.8 %
     Extraction speed 1.4 X
     Track quality 100.0 %
     Test CRC F97414D9
     Copy CRC F97414D9
     Accurately ripped (confidence 2)  [E5DAB391]  (AR v2)
     Copy OK

Track 13

     Filename C:\eac_rips\Bill Elm and Woody Jackson - Red Dead Redemption Undead Nightmare (2010) [FLAC]\13 - Bill Elm and Woody Jackson - A Man Ready For Anything.wav

     Peak level 98.8 %
     Extraction speed 1.5 X
     Track quality 100.0 %
     Test CRC 957BBCCB
     Copy CRC 957BBCCB
     Accurately ripped (confidence 2)  [38A194A5]  (AR v2)
     Copy OK

Track 14

     Filename C:\eac_rips\Bill Elm and Woody Jackson - Red Dead Redemption Undead Nightmare (2010) [FLAC]\14 - Bill Elm and Woody Jackson - Shodown At Escalera.wav

     Peak level 99.0 %
     Extraction speed 1.6 X
     Track quality 100.0 %
     Test CRC D652FD89
     Copy CRC D652FD89
     Accurately ripped (confidence 2)  [728DECBA]  (AR v2)
     Copy OK

Track 15

     Filename C:\eac_rips\Bill Elm and Woody Jackson - Red Dead Redemption Undead Nightmare (2010) [FLAC]\15 - Kreeps - Bad Voodoo.wav

     Peak level 83.8 %
     Extraction speed 1.5 X
     Track quality 99.9 %
     Test CRC FD6644F7
     Copy CRC FD6644F7
     Accurately ripped (confidence 2)  [A6DBF9BA]  (AR v2)
     Copy OK

Track 16

     Filename C:\eac_rips\Bill Elm and Woody Jackson - Red Dead Redemption Undead Nightmare (2010) [FLAC]\16 - Kreeps - Dead Man Walking.wav

     Peak level 98.9 %
     Extraction speed 1.9 X
     Track quality 100.0 %
     Test CRC CAE67F4B
     Copy CRC CAE67F4B
     Accurately ripped (confidence 2)  [9DB8E308]  (AR v2)
     Copy OK

Track 17

     Filename C:\eac_rips\Bill Elm and Woody Jackson - Red Dead Redemption Undead Nightmare (2010) [FLAC]\17 - Kreeps - Dead Sled.wav

     Peak level 98.9 %
     Extraction speed 1.7 X
     Track quality 100.0 %
     Test CRC 0EC722DD
     Copy CRC 0EC722DD
     Accurately ripped (confidence 2)  [4C637F90]  (AR v2)
     Copy OK

Track 18

     Filename C:\eac_rips\Bill Elm and Woody Jackson - Red Dead Redemption Undead Nightmare (2010) [FLAC]\18 - Misterio (3) - Stinkin' Zombies.wav

     Peak level 99.4 %
     Extraction speed 1.5 X
     Track quality 99.9 %
     Test CRC BEB28387
     Copy CRC BEB28387
     Accurately ripped (confidence 2)  [F5822B62]  (AR v2)
     Copy OK

All tracks accurately ripped

No errors occurred

End of status report

---- CUETools DB Plugin V2.1.6

[CTDB TOCID: Txsz0XP23NF5L2GKS6H4a7.ml7s-] found
Submit result: unrecognized or virtual drive
Track | CTDB Status
  1   | (5/5) Accurately ripped
  2   | (5/5) Accurately ripped
  3   | (5/5) Accurately ripped
  4   | (5/5) Accurately ripped
  5   | (5/5) Accurately ripped
  6   | (5/5) Accurately ripped
  7   | (5/5) Accurately ripped
  8   | (5/5) Accurately ripped
  9   | (5/5) Accurately ripped
 10   | (5/5) Accurately ripped
 11   | (5/5) Accurately ripped
 12   | (5/5) Accurately ripped
 13   | (5/5) Accurately ripped
 14   | (5/5) Accurately ripped
 15   | (5/5) Accurately ripped
 16   | (5/5) Accurately ripped
 17   | (5/5) Accurately ripped
 18   | (5/5) Accurately ripped

==== Log checksum B47A1064B7E1196FA222867FF90C12D5B9AD511A6BFC46A65882A9D84E769541 ====

Код:

REM GENRE Soundtrack
REM DATE 2011
REM DISCID 020B7F12
REM COMMENT "ExactAudioCopy v1.3"
PERFORMER "Bill Elm and Woody Jackson"
TITLE "Red Dead Redemption Undead Nightmare"
FILE "01 - Undead Nightmare.wav" WAVE
  TRACK 01 AUDIO
    TITLE "Undead Nightmare"
    PERFORMER "Bill Elm and Woody Jackson"
    FLAGS DCP
    INDEX 01 00:00:00
FILE "02 - Zombie Corpseplay.wav" WAVE
  TRACK 02 AUDIO
    TITLE "Zombie Corpseplay"
    PERFORMER "Bill Elm and Woody Jackson"
    FLAGS DCP
    INDEX 01 00:00:00
FILE "03 - Get Back in that Hole, Partner.wav" WAVE
  TRACK 03 AUDIO
    TITLE "Get Back in that Hole, Partner"
    PERFORMER "Bill Elm and Woody Jackson"
    FLAGS DCP
    INDEX 01 00:00:00
FILE "04 - Army of Undead.wav" WAVE
  TRACK 04 AUDIO
    TITLE "Army of Undead"
    PERFORMER "Bill Elm and Woody Jackson"
    FLAGS DCP
    INDEX 01 00:00:00
FILE "05 - Chupacabra.wav" WAVE
  TRACK 05 AUDIO
    TITLE "Chupacabra"
    PERFORMER "Bill Elm and Woody Jackson"
    FLAGS DCP
    INDEX 01 00:00:00
FILE "06 - Zombie Peyote.wav" WAVE
  TRACK 06 AUDIO
    TITLE "Zombie Peyote"
    PERFORMER "Bill Elm and Woody Jackson"
    FLAGS DCP
    INDEX 01 00:00:00
FILE "07 - Ojo Muerto.wav" WAVE
  TRACK 07 AUDIO
    TITLE "Ojo Muerto"
    PERFORMER "Bill Elm and Woody Jackson"
    FLAGS DCP
    INDEX 01 00:00:00
FILE "08 - Blunderbuss Blues.wav" WAVE
  TRACK 08 AUDIO
    TITLE "Blunderbuss Blues"
    PERFORMER "Bill Elm and Woody Jackson"
    FLAGS DCP
    INDEX 01 00:00:00
FILE "09 - Four Horses of the Apocalypse.wav" WAVE
  TRACK 09 AUDIO
    TITLE "Four Horses of the Apocalypse"
    PERFORMER "Bill Elm and Woody Jackson"
    FLAGS DCP
    INDEX 01 00:00:00
FILE "10 - Blackwater, U.S.A..wav" WAVE
  TRACK 10 AUDIO
    TITLE "Blackwater, U.S.A."
    PERFORMER "Bill Elm and Woody Jackson"
    FLAGS DCP
    INDEX 01 00:00:00
FILE "11 - Undead Redemption.wav" WAVE
  TRACK 11 AUDIO
    TITLE "Undead Redemption"
    PERFORMER "Bill Elm and Woody Jackson"
    FLAGS DCP
    INDEX 01 00:00:00
FILE "12 - Missing Souls.wav" WAVE
  TRACK 12 AUDIO
    TITLE "Missing Souls"
    PERFORMER "Bill Elm and Woody Jackson"
    FLAGS DCP
    INDEX 01 00:00:00
FILE "13 - A Man Ready for Anything.wav" WAVE
  TRACK 13 AUDIO
    TITLE "A Man Ready for Anything"
    PERFORMER "Bill Elm and Woody Jackson"
    FLAGS DCP
    INDEX 01 00:00:00
FILE "14 - Showdown at Escalera.wav" WAVE
  TRACK 14 AUDIO
    TITLE "Showdown at Escalera"
    PERFORMER "Bill Elm and Woody Jackson"
    FLAGS DCP
    INDEX 01 00:00:00
FILE "15 - Bad Voodoo (performed by Kreeps).wav" WAVE
  TRACK 15 AUDIO
    TITLE "Bad Voodoo"
    PERFORMER "Kreeps"
    FLAGS DCP
    INDEX 01 00:00:00
FILE "16 - Dead Man Walking (performed by Kreeps).wav" WAVE
  TRACK 16 AUDIO
    TITLE "Dead Man Walking"
    PERFORMER "Kreeps"
    FLAGS DCP
    INDEX 01 00:00:00
FILE "17 - Dead Sled (performed by Kreeps).wav" WAVE
  TRACK 17 AUDIO
    TITLE "Dead Sled"
    PERFORMER "Kreeps"
    FLAGS DCP
    INDEX 01 00:00:00
FILE "18 - Stinkin' Zombies (performed by Misterio).wav" WAVE
  TRACK 18 AUDIO
    TITLE "Stinkin' Zombies"
    PERFORMER "Misterio"
    FLAGS DCP
    INDEX 01 00:00:00

pic pic pic
pic pic pic
Для увеличения картинки щелкните мышкой по превью

Этот торрент недоступен для скачивания без регистрации, однако доступен по публичной magnet-ссылке (источники с публичных трекеров). Перед использованием ссылки прочтите, пожалуйста Пользовательское соглашение, а также как можно дольше оставайтесь на раздаче! Для того, чтобы скачать сам торрент-файл (который видит больше источников), а также для того, чтобы поблагодарить релизера, вам необходимо зарегистрироваться. Если регистрироваться лень - вы можете также попробовать скачать релиз по нашим партнерским ссылкам ниже. Кроме того, зарегистрированным пользователям не показывается всплывающая реклама при скачивании.

[underverse.me].t78019.torrent
Трекер: Зарегистрирован   [ 23.12.2017 14:57 ]  

Статус: проверено (by garry at 23.12.2017 15:00)
Поблагодарили: пока никто не поблагодарил...
Тип торрента: публичный - доступные источники с открытых трекеров: 
Размер: 684 MB (занимает 0,15 DVDR, для записи нужно 1 болванка DVDR/RW)
 
 

Яндекс.Метрика powered by Sphinx


В Н И М А Н И Е
Сайт не распространяет и не хранит электронные версии произведений, а лишь бесплатно и без коммерческой выгоды (не требуя взамен платы,
SMS и т.д.) предоставляет доступ к создаваемому пользователями каталогу ссылок на торрент-файлы, которые содержат только списки хеш-сумм.
Убедительная просьба с жалобами обращаться напрямую к пользователю, разместившему торрент файл.

Вверх