Loading...
Error

Каникулы с гангстером / Vacanze col gangster / Vacation with a Gangster (Дино Ризи) [1954 г., драма, приключения, TVRip] AVO (Медведев) + Original + Sub (Eng)

Статистика раздачи
Размер:  1,46 GB   |    Зарегистрирован:  9 месяцев   |    Скачан:  2 раза

Полного источника не было: 50 минут

Сидов:  0  |  0 KB/s  ]   Личеров:  0  |  0 KB/s  ]

* - сиды/пиры с внешних источников

   
 
Автор Сообщение

makkol Пол:Муж

19-Янв-2017 10:20

Каникулы с гангстером / Vacanze col gangster / Vacation with a Gangster


Год выпуска: 1954
Жанр: драма, приключения
Производство: Италия [Mambretti Film]
Режиссер: Дино Ризи
В ролях: Марк Лоуренс, Джованна Пала, Теренс Хилл, Ламберто Маджорани, Гаэтано Пессина, Лучиано Карузо, Альфредо Бальдиери, Антонио Бакчи, Дина Пербеллини, Анна Арена
Сюжет фильма:
Во время летних каникул пятеро школьников находят записку, автор которой сидит в тюрьме и утверждает, что осужден незаконно. Ребята разрабатывают план, чтобы помочь ему бежать. Записка, адресованная заключенному N 5823, запеченная в пироге, случайно попадает к заключенному N 6211, который на самом деле является гангстером и осужден вполне обосновано. Дружки гангстера сами в это же время планируют организовать для него побег… А далее история развивается по законам жанра.

Качество видео: TVRip

Продолжительность: 01:10:45
Формат: AVI
Видео: XviD, 720x540 (4:3), 25.000 fps, 2562 kbps
Аудио #1: русский, авторский одноголосый закадровый (Юрий Медведев), MP3 2.0, 48 kHz, 192 kbps
Аудио #2: итальянский, оригинал, MP3 2.0, 48 kHz, 192 kbps
Субтитры: английские внешние, SRT

Код:

Формат                                   : AVI
Формат/Информация                        : Audio Video Interleave
Размер файла                             : 1,46 Гбайт
Продолжительность                        : 1 ч. 10 м.
Общий поток                              : 2961 Кбит/сек
Программа кодирования                    : VirtualDubModRus 1.5.10.2 (build 2542/release)
Библиотека кодирования                   : VirtualDubMod build 2542/release

Видео
Идентификатор                            : 0
Формат                                   : MPEG-4 Visual
Профиль формата                          : Advanced Simple@L5
Параметр BVOP формата                    : 2
Параметр QPel формата                    : Нет
Параметр GMC формата                     : Без точки перехода
Параметр матрицы формата                 : Default (H.263)
Идентификатор кодека                     : XVID
Идентификатор кодека/Подсказка           : XviD
Продолжительность                        : 1 ч. 10 м.
Битрейт                                  : 2562 Кбит/сек
Ширина                                   : 720 пикселей
Высота                                   : 540 пикселей
Соотношение сторон                       : 4:3
Частота кадров                           : 25,000 кадров/сек
Цветовое пространство                    : YUV
Субдискретизация насыщенности            : 4:2:0
Битовая глубина                          : 8 бит
Тип развёртки                            : Прогрессивная
Метод сжатия                             : С потерями
Бит/(Пиксели*Кадры)                      : 0.264
Размер потока                            : 1,27 Гбайт (87%)
Библиотека кодирования                   : XviD 1.1.2 (UTC 2006-11-01)

Аудио #1
Идентификатор                            : 1
Формат                                   : MPEG Audio
Версия формата                           : Version 1
Профиль формата                          : Layer 3
Режим                                    : Joint stereo
Расширение режима                        : MS Stereo
Идентификатор кодека                     : 55
Идентификатор кодека/Подсказка           : MP3
Продолжительность                        : 1 ч. 10 м.
Вид битрейта                             : Постоянный
Битрейт                                  : 192 Кбит/сек
Каналы                                   : 2 канала
Частота                                  : 48,0 КГц
Метод сжатия                             : С потерями
Размер потока                            : 97,1 Мбайт (6%)
Выравнивание                             : Разделение по промежуткам
Продолжительность промежутка             : 40  мс. (1,00 видеокадр)
Время предзагрузки промежутка            : 500  мс.
Библиотека кодирования                   : LAME3.98.2

Аудио #2
Идентификатор                            : 2
Формат                                   : MPEG Audio
Версия формата                           : Version 1
Профиль формата                          : Layer 3
Режим                                    : Joint stereo
Расширение режима                        : MS Stereo
Идентификатор кодека                     : 55
Идентификатор кодека/Подсказка           : MP3
Продолжительность                        : 1 ч. 10 м.
Вид битрейта                             : Постоянный
Битрейт                                  : 192 Кбит/сек
Каналы                                   : 2 канала
Частота                                  : 48,0 КГц
Метод сжатия                             : С потерями
Размер потока                            : 97,2 Мбайт (6%)
Выравнивание                             : Соединение по промежуткам
Продолжительность промежутка             : 40  мс. (1,00 видеокадр)
Время предзагрузки промежутка            : 504  мс.
Библиотека кодирования                   : LAME3.99r
Настройки программы                      : -m j -V 4 -q 3 -lowpass 18.6 -b 192
picpicpicpicpic
Для увеличения картинки щелкните мышкой по превью

Этот торрент недоступен для скачивания без регистрации, однако доступен по публичной magnet-ссылке (источники с публичных трекеров). Перед использованием ссылки прочтите, пожалуйста Пользовательское соглашение, а также как можно дольше оставайтесь на раздаче! Для того, чтобы скачать сам торрент-файл (который видит больше источников), а также для того, чтобы поблагодарить релизера, вам необходимо зарегистрироваться. Если регистрироваться лень - вы можете также попробовать скачать релиз по нашим партнерским ссылкам ниже.

[underverse.me].t77200.torrent
Трекер: Зарегистрирован   [ 19.01.2017 10:20 ]  

Статус: проверено (by makkol at 19.01.2017 10:20)
Поблагодарили: пока никто не поблагодарил...
Тип торрента: публичный - доступные источники с открытых трекеров: 
Размер: 1,46 GB (занимает 0,33 DVDR, для записи нужно 1 болванка DVDR/RW)
 
 
Похожие темы
Форум Тема Автор Торрент Отв. Посл. сооб.
Зарубежное кино [DVDRip, Low-Res HDRip, и т.д.] Каникулы с Дереком / Vacation with Derek (Майкл МакГоун) [2010 г., драма, комедия, семейный, SATRip] MVO Чертёнок
0 | 0

0 | 1709

3

23.10.2013 10:40

Наше кино [DVDRip, Low-Res HDRip, и т.д.] Каникулы строгого режима (Игорь Зайцев) [2009 г., комедия, приключения, детектив, BDRip] GUree
0 | 0

2 | 1526

2

25.10.2009 10:40

Архив Каникулы с чирлидершами / Fired Up (Уилл Глюк) [2009 г., комедия, DVDRip] Shursh
1 | 0

15 | 2764

61

05.11.2011 14:44


Яндекс.Метрика powered by Sphinx


В Н И М А Н И Е
Сайт не распространяет и не хранит электронные версии произведений, а лишь бесплатно и без коммерческой выгоды (не требуя взамен платы,
SMS и т.д.) предоставляет доступ к создаваемому пользователями каталогу ссылок на торрент-файлы, которые содержат только списки хеш-сумм.
Убедительная просьба с жалобами обращаться напрямую к пользователю, разместившему торрент файл.

Вверх