Loading...
Error

Шерлок / Sherlock (Дуглас МакКиннон) (4 сезон: 0-3 серий из 3) (Дуглас МакКиннон) [2016 г., криминал, драма, мистика, HDTVRip 720p] Dub (Первый канал)

Статистика раздачи
Размер:  8,71 GB   |    Зарегистрирован:  4 месяца 5 дней   |    Скачан:  14 раз

Полного источника не было: 1 час 21 минута

Сидов:  0  |  0 KB/s  ]   Личеров:  0  |  0 KB/s  ]

* - сиды/пиры с внешних источников

   
 
Автор Сообщение

Паукан Пол:Муж

09-Янв-2017 13:14

Шерлок / Sherlock (2016-2017) HDTVRip [H.264/720p-LQ] (сезон 4, серии 0-2 из 3) Первый канал (обновляемая)
«Лучший сыщик 21-го века»

Производство: Великобритания / Hartswood Films, BBC Wales, Masterpiece Theatre
Жанр: криминал, драма, мистика

Режиссер: Дуглас МакКиннон
Актеры: Бенедикт Камбербэтч, Мартин Фриман, Уна Стаббс, Лу Брили, Руперт Грэйвз, Джонатан Арис, Аманда Эббингтон, Наташа О’Кифф и др.

Описание:
Пилотная серия сезона. Действие фильма происходит в 1895 года в Лондоне. К Шерлоку за помощью обращается некий Томас Риколетти. Он увидел свою жену в старом свадебном платье и очень удивился. А вскоре узнал, что она покончила с собой всего за несколько часов до этой странной встречи. Получается, что он видел призрак жены и, что еще хуже, теперь призрак миссис Риколетти бродит по улицам не в силах утолить жажду мести. Перемещаясь от скрытой в тумане станции «Лаймхаус» до развалин старой церкви Холмс, Ватсон и их друзья должны проявить свои лучшие качества в схватке с врагом, на первый взгляд связанным с потусторонними силами, чтобы узнать шокирующую правду о безобразной невесте!



Возраст: 12+ (зрителям, достигшим 12 лет)
Дата мировой премьеры: 02.01.2016
Дата премьеры в России: 02.01.2016


Релиз от: NNMClub
Продолжительность: ~01:30:00 серия
Качество видео: HDTVRip 720p (batonchik)
Перевод: Дублированный (Первый канал)
Вид субтитров: вшитые не отключаемые (форсированные хардсаб)
Язык субтитров: русский

Видео: AVC/H.264, 1280x720 (16:9), ~3138 Kbps
Аудио: AC-3, 48.0 KHz, 6 ch, 384 Kbps | дублированный
--[Information] [02.01.2017 11:30:38] Standard error stream
---[Information] [02.01.2017 11:30:39] raw [info]: 1280x720p 1:1 @ 25/1 fps (cfr)
---[Information] [02.01.2017 11:30:39] x264 [info]: using SAR=1/1
---[Information] [02.01.2017 11:30:39] x264 [info]: using cpu capabilities: MMX2 SSE2Fast SSSE3 SSE4.2 AVX
---[Information] [02.01.2017 11:30:39] x264 [info]: profile High, level 4.1
---[Information] [02.01.2017 11:33:28] x264 [info]: frame I:44 Avg QP:15.77 size: 62583
---[Information] [02.01.2017 11:33:28] x264 [info]: frame P:701 Avg QP:16.81 size: 26385
---[Information] [02.01.2017 11:33:28] x264 [info]: frame B:1805 Avg QP:17.30 size: 10335
---[Information] [02.01.2017 11:33:28] x264 [info]: consecutive B-frames: 4.8% 6.4% 7.2% 63.2% 7.3% 4.2% 2.2% 2.5% 1.4% 0.8%
---[Information] [02.01.2017 11:33:28] x264 [info]: mb I I16..4: 19.3% 70.0% 10.7%
---[Information] [02.01.2017 11:33:28] x264 [info]: mb P I16..4: 10.4% 18.1% 1.5% P16..4: 42.9% 11.3% 8.5% 0.2% 0.1% skip: 7.0%
---[Information] [02.01.2017 11:33:28] x264 [info]: mb B I16..4: 1.4% 2.0% 0.1% B16..8: 36.5% 8.0% 1.5% direct: 8.9% skip:41.6% L0:41.8% L1:48.1% BI:10.2%
---[Information] [02.01.2017 11:33:28] x264 [info]: 8x8 transform intra:60.9% inter:60.6%
---[Information] [02.01.2017 11:33:28] x264 [info]: direct mvs spatial:97.8% temporal:2.2%
---[Information] [02.01.2017 11:33:28] x264 [info]: coded y,uvDC,uvAC intra: 52.6% 80.6% 57.5% inter: 19.4% 35.6% 11.2%
---[Information] [02.01.2017 11:33:28] x264 [info]: i16 v,h,dc,p: 67% 8% 6% 19%
---[Information] [02.01.2017 11:33:28] x264 [info]: i8 v,h,dc,ddl,ddr,vr,hd,vl,hu: 18% 8% 19% 7% 9% 11% 9% 10% 10%
---[Information] [02.01.2017 11:33:28] x264 [info]: i4 v,h,dc,ddl,ddr,vr,hd,vl,hu: 21% 8% 11% 9% 11% 12% 9% 10% 9%
---[Information] [02.01.2017 11:33:28] x264 [info]: i8c dc,h,v,p: 45% 22% 23% 10%
---[Information] [02.01.2017 11:33:28] x264 [info]: Weighted P-Frames: Y:4.3% UV:2.4%
---[Information] [02.01.2017 11:33:28] x264 [info]: ref P L0: 58.9% 7.6% 16.1% 6.6% 4.2% 3.7% 2.7% 0.2% 0.0%
Общее
Полное имя : \Шерлок.HDTVRip.720p.NNMClub\00.Шерлок_Безобразная невеста.2016.HDTVRip.720p.NNMClub.mkv
Формат : Matroska
Версия формата : Version 2
Размер файла : 2,18 Гбайт
Продолжительность : 1 ч. 28 м.
Общий поток : 3524 Кбит/сек
Название фильма : 00.Шерлок_Безобразная невеста.2016.HDTVRip.720p.NNMClub
Дата кодирования : UTC 2017-01-02 12:41:06
Программа кодирования : mkvmerge v7.7.0 ('Six Voices') 64bit built on Feb 28 2015 23:39:33
Библиотека кодирования : libebml v1.3.1 + libmatroska v1.4.2

Видео
Идентификатор : 1
Формат : AVC
Формат/Информация : Advanced Video Codec
Профиль формата : [url=mailto:High@L4.1]High@L4.1[/url]
Параметр CABAC формата : Да
Параметр ReFrames формата : 7 кадров
Идентификатор кодека : V_MPEG4/ISO/AVC
Продолжительность : 1 ч. 28 м.
Битрейт : 3138 Кбит/сек
Ширина : 1280 пикселей
Высота : 720 пикселей
Соотношение сторон : 16:9
Режим частоты кадров : Постоянный
Частота кадров : 25,000 кадров/сек
Цветовое пространство : YUV
Субдискретизация насыщенности : 4:2:0
Битовая глубина : 8 бит
Тип развёртки : Прогрессивная
Бит/(Пиксели*Кадры) : 0.136
Размер потока : 1,90 Гбайт (87%)
Заголовок : 00.Шерлок_Безобразная невеста.2016.HDTVRip.720p.NNMClub
Библиотека кодирования : x264 core 146 r2538 121396c
Настройки программы : cabac=1 / ref=7 / deblock=1:-3:-3 / analyse=0x3:0x133 / me=umh / subme=9 / psy=1 / psy_rd=1.00:0.25 / mixed_ref=1 / me_range=24 / chroma_me=1 / trellis=2 / 8x8dct=1 / cqm=0 / deadzone=6,6 / fast_pskip=0 / chroma_qp_offset=-4 / threads=12 / lookahead_threads=2 / sliced_threads=0 / nr=0 / decimate=0 / interlaced=0 / bluray_compat=0 / constrained_intra=0 / bframes=9 / b_pyramid=2 / b_adapt=2 / b_bias=0 / direct=3 / weightb=0 / open_gop=0 / weightp=2 / keyint=250 / keyint_min=23 / scenecut=40 / intra_refresh=0 / rc_lookahead=40 / rc=2pass / mbtree=1 / bitrate=3138 / ratetol=1.0 / qcomp=0.80 / qpmin=0 / qpmax=69 / qpstep=4 / cplxblur=20.0 / qblur=0.5 / vbv_maxrate=50000 / vbv_bufsize=62500 / nal_hrd=none / filler=0 / ip_ratio=1.10 / aq=1:0.90
Язык : English
Default : Да
Forced : Нет

Аудио
Идентификатор : 2
Формат : AC-3
Формат/Информация : Audio Coding 3
Расширение режима : CM (complete main)
Параметр Endianness формата : Big
Идентификатор кодека : A_AC3
Продолжительность : 1 ч. 28 м.
Вид битрейта : Постоянный
Битрейт : 384 Кбит/сек
Каналы : 6 каналов
Расположение каналов : Front: L C R, Side: L R, LFE
Частота : 48,0 КГц
Частота кадров : 31,250 кадров/сек (1536 spf)
Битовая глубина : 16 бит
Метод сжатия : С потерями
Размер потока : 243 Мбайт (11%)
Заголовок : Дублированный (Первый канал)
Язык : Russian
Default : Да
Forced : Нет
00. Безобразная невеста
01. Шесть Тэтчер
02. Ложный детектив
03. Финальная проблема
Внимание! Раздача ведётся путём добавления новых серий; при каждом добавлении создаётся новый торрент.
Чтобы начать докачку новой серии, пользователям необходимо сделать следующее:
1. Остановить скачивание;
2. Удалить старый торрент у себя из клиента (старые серии удалять не надо);
3. Скачать новый торрент и запустить его у себя в клиенте вместо старого, при этом указать клиенту путь в старую папку куда и должно происходить скачивание новых серий. Ваш клиент при этом должен произвести хеширование (проверку) старой папки и будет докачивать только те серии, которых у вас ещё нет. Старые серии при этом не удаляются, а продолжают раздаваться! Eсли вы уже удалили старые серии, то предотвратить повторную закачку старых серий можно, отжав галочку в соответствующих местах при запуске нового торрента.
pic pic pic
Для увеличения картинки щелкните мышкой по превью

Этот торрент недоступен для скачивания без регистрации, однако доступен по публичной magnet-ссылке (источники с публичных трекеров). Перед использованием ссылки прочтите, пожалуйста Пользовательское соглашение, а также как можно дольше оставайтесь на раздаче! Для того, чтобы скачать сам торрент-файл (который видит больше источников), а также для того, чтобы поблагодарить релизера, вам необходимо зарегистрироваться. Если регистрироваться лень - вы можете также попробовать скачать релиз по нашим партнерским ссылкам ниже.

[underverse.me].t76849.torrent
Трекер: Зарегистрирован   [ 22.01.2017 14:43 ]  

Статус: проверено (by Паукан at 22.01.2017 14:43)
Поблагодарили: 2 человека
Тип торрента: публичный - доступные источники с открытых трекеров: 
Размер: 8,71 GB (занимает 1,99 DVDR, для записи нужно 2 болванки DVDR/RW)
 
 
Похожие темы
Форум Тема Автор Торрент Отв. Посл. сооб.
Зарубежные сериалы Шерлок / Sherlock [Season 1, All episodes] (Пол МакГиган) [2010 г., криминальный, детектив, BDRip/HDTVRip] Ollleg
0 | 0

10 | 2207

3

14.08.2012 18:27

Зарубежные сериалы Шерлок / Sherlock / Сезон: 3 / Серии: 1-3 (Пол МакГиган) [2014 г., детектив, HDTVRip] Dub garry
1000 | 521

12 | 6015

118

25.07.2014 18:09

Зарубежные сериалы [BD / Remux / BDRip / WEB-DL / HDTV 1080/720р] Шерлок / Sherlock / Сезон 1-2 / Серии 1-6 (6) (Пол МакГиган) [2010-2012 г., триллер, драма, криминал, детектив, BDRip 720p] Dub + Original Чертёнок
3 | 2

1 | 2073

102

13.04.2013 05:17



Последний раз редактировалось: Паукан (22.01.2017 14:43), всего редактировалось 1 раз

marchenkau 

16-Янв-2017 09:17

А где третья серия - ФИНАЛЬНАЯ ПРОБЛЕМА :cry:

Паукан Пол:Муж

22-Янв-2017 14:43

Обновлено. Теперь полный сезон.

Яндекс.Метрика powered by Sphinx


В Н И М А Н И Е
Сайт не распространяет и не хранит электронные версии произведений, а лишь бесплатно и без коммерческой выгоды (не требуя взамен платы,
SMS и т.д.) предоставляет доступ к создаваемому пользователями каталогу ссылок на торрент-файлы, которые содержат только списки хеш-сумм.
Убедительная просьба с жалобами обращаться напрямую к пользователю, разместившему торрент файл.

Вверх