Loading...
Error

Учебный центр 1C (Басалов Юрий) - Основы программирования в системе [2015, программирование, PCRec]

Статистика раздачи
Размер:  10,36 GB   |    Зарегистрирован:  8 дней   |    Скачан:  12 раз
Сидов:  1  |  40 KB/s  ]   Личеров:  0  |  0 KB/s  ]

* - сиды/пиры с внешних источников

   
 
Автор Сообщение

Паукан Пол:Муж

09-Янв-2017 12:36

Учебный центр 1C (Басалов Юрий) - Основы программирования в системе "1C:Предприятие 8.3" (2015) PCRec

Автор (режиссер): Учебный центр 1C (Басалов Юрий)
Производство: Учебный центр №1 "Фирма 1С"
Жанр: Программирование

Описание:
Данный курс поможет специалисту преодолеть сложность в понимании языка программирования системы "1С:Предприятие 8", сформировать начальные практические навыки и быстро приступить к работе.

Цели курса: ознакомление слушателей с базовыми задачами и возможностями встроенного языка 1С, формирование практических навыков по программированию в системе "1С:Предприятие 8". Курс предназначен для широкой аудитории слушателей: от начинающих программистов, пользователей и консультантов до профессионалов, желающих освоить предметно-ориентированное программирование.

По окончании курса Вы сможете:
- понять синтаксис встроенного языка 1С;
- понять конструкции в языке запросов;
- разобраться в несложных существующих алгоритмах;
- создавать собственные алгоритмы.

Продолжительность: ~21:30:00
Качество видео: PCRec

Видео: AVC/H.264, 1024x768, ~619 Kbps
Аудио: AAC, 2 ch, ~126 Kbps, VBR
General
Format                         : MPEG-4
Format profile                 : Base Media / Version 2
Codec ID                       : mp42
File size                      : 202 MiB
Duration                       : 37mn 47s
Overall bit rate mode          : Variable
Overall bit rate               : 747 Kbps
Encoded date                   : UTC 2016-04-21 07:21:56
Tagged date                    : UTC 2016-04-21 07:21:56

Video
ID                             : 1
Format                         : AVC
Format/Info                    : Advanced Video Codec
Format profile                 : [url=mailto:Baseline@L3.1]Baseline@L3.1[/url]
Format settings, CABAC         : No
Format settings, ReFrames      : 3 frames
Codec ID                       : avc1
Codec ID/Info                  : Advanced Video Coding
Duration                       : 37mn 47s
Bit rate                       : 619 Kbps
Width                          : 1 024 pixels
Height                         : 768 pixels
Display aspect ratio           : 4:3
Frame rate mode                : Constant
Frame rate                     : 30.000 fps
Standard                       : NTSC
Color space                    : YUV
Chroma subsampling             : 4:2:0
Bit depth                      : 8 bits
Scan type                      : Progressive
Bits/(Pixel*Frame)             : 0.026
Stream size                    : 167 MiB (83%)
Language                       : English
Encoded date                   : UTC 2016-04-21 07:21:57
Tagged date                    : UTC 2016-04-21 07:21:57
Color range                    : Limited

Audio
ID                             : 2
Format                         : AAC
Format/Info                    : Advanced Audio Codec
Format profile                 : LC
Codec ID                       : 40
Duration                       : 37mn 47s
Bit rate mode                  : Variable
Bit rate                       : 126 Kbps
Maximum bit rate               : 233 Kbps
Channel(s)                     : 2 channels
Channel positions              : Front: L R
Sampling rate                  : 44.1 KHz
Compression mode               : Lossy
Stream size                    : 34.0 MiB (17%)
Language                       : English
Encoded date                   : UTC 2016-04-21 07:21:57
Tagged date                    : UTC 2016-04-21 07:21:57
1. Основные конструкции встроенного языка 1С:Предприятие 8
  - Базовые типы данных
    - Работа с текстовыми значениями
    - Работа с числовыми значениями
    - Работа с датой и временем
    - Работа со значением типа булево
    - Системные функции работы со значениями
    - Преобразование типов данных
  - Выражения и операторы
    - Работа с переменными и оператор присваивания
    - Арифметические операции
    - Логические операции
  - Синтаксические конструкции
    - Работа с условиями
    - Работа с циклами
    - Работа с переходами
  - Коллекции значений
    - Использование массивов
    - Использование таблицы значений
    - Использование дерева значений
    - Использование списка значений
    - Использование структуры
    - Использование соответствия

2. Объектная модель работы с данными
  - Конфигурация базы данных
    - Программное чтение дерева метаданных
    - Анализ объекта конфигурации
    - Анализ предопределенных элементов
    - Анализ коллекции метаданных
  - Объекты встроенного языка
    - Использование системных свойств
    - Использование системных методов
    - Расширение методов объекта встроенного языка
  - Объекты информационной базы
    - Создание объекта
    - Определение динамических свойств объекта
    - Создание собственных методов объекта
  - Обработчики событий
    - Использование события "Перед записью"
    - Использование события "При записи"

3. Табличная модель работы с данными
  - Использование одного источника
  - Соединение источников
  - Объединение источников
  - Объединение записей
  - Получение итоговых записей
 
4. Совместное использование табличной и объектной моделей
  - Использование временных таблиц
  - Использование менеджера временных таблиц
  - Обход результатов запроса
  - Использование пакетных запросов
Раздача содержит как видео-курс с выгрузкой опорной базы данных, так и используемые в уроках внешние обработки, а также электронный учебник по курсу в формате PDF.
Скриншоты:


Этот торрент недоступен для скачивания без регистрации, однако доступен по публичной magnet-ссылке (источники с публичных трекеров). Перед использованием ссылки прочтите, пожалуйста Пользовательское соглашение, а также как можно дольше оставайтесь на раздаче! Для того, чтобы скачать сам торрент-файл (который видит больше источников), а также для того, чтобы поблагодарить релизера, вам необходимо зарегистрироваться. Если регистрироваться лень - вы можете также попробовать скачать релиз по нашим партнерским ссылкам ниже.

[underverse.me].t76844.torrent
Трекер: Зарегистрирован   [ 09.01.2017 12:36 ]  

Статус: проверено (by Паукан at 09.01.2017 12:37)
Поблагодарили: пока никто не поблагодарил...
Тип торрента: публичный - доступные источники с открытых трекеров: 
Размер: 10,36 GB (занимает 2,37 DVDR, для записи нужно 3 болванки DVDR/RW)
 
 

Яндекс.Метрика powered by Sphinx


В Н И М А Н И Е
Сайт не распространяет и не хранит электронные версии произведений, а лишь бесплатно и без коммерческой выгоды (не требуя взамен платы,
SMS и т.д.) предоставляет доступ к создаваемому пользователями каталогу ссылок на торрент-файлы, которые содержат только списки хеш-сумм.
Убедительная просьба с жалобами обращаться напрямую к пользователю, разместившему торрент файл.

Вверх