Loading...
Error

(Drum & Bass, Breakcore) End.user - Enter To Exit (2016) [FLAC (Tracks+.CUE), lossless]

Статистика раздачи
Размер:  296 MB   |    Зарегистрирован:  9 месяцев   |    Скачан:  2 раза

Полного источника не было: 8 дней

Сидов:  0  |  0 KB/s  ]   Личеров:  0  |  0 KB/s  ]

* - сиды/пиры с внешних источников

   
 
Автор Сообщение

Darkferse Пол:Жен

08-Янв-2017 13:27

End.user - Enter To Exit

Жанр: Drum & Bass, Breakcore
Страна: USA
Год выпуска: 2016
Источник: CD
Производитель: Hands Productions (D230)
Аудиокодек: FLAC
Тип рипа: Tracks+.CUE
Битрейт: lossless
Продолжительность: 00:48:16

Треклист:

01. In Any Event (02:45)
02. Ab Minus (06:05)
03. Projection (04:27)
04. Enter To Exit (05:25)
05. Resist (04:16)
06. Beneath (05:03)
07. Desolation (04:51)
08. Subtraction (04:12)
09. When Faith Wasn't Enough (Awake Version) (04:47)
10. Emerge (04:38)
11. Sleep (01:51)

Код:

Exact Audio Copy V1.1 from 23. June 2015

EAC extraction logfile from 20. December 2016, 22:54

Enduser / Enter To Exit

Used drive  : Optiarc DVD RW AD-5240S   Adapter: 1  ID: 0

Read mode               : Secure
Utilize accurate stream : Yes
Defeat audio cache      : Yes
Make use of C2 pointers : No

Read offset correction                      : 48
Overread into Lead-In and Lead-Out          : No
Fill up missing offset samples with silence : Yes
Delete leading and trailing silent blocks   : No
Null samples used in CRC calculations       : Yes
Used interface                              : Native Win32 interface for Win NT & 2000
Gap handling                                : Appended to previous track

Used output format              : User Defined Encoder
Selected bitrate                : 1024 kBit/s
Quality                         : High
Add ID3 tag                     : No
Command line compressor         : D:\iROpack\FLAC\flac.exe
Additional command line options : -8 -V -T "ARTIST=%artist%" -T "TITLE=%title%" -T "ALBUM=%albumtitle%" -T "DATE=%year%" -T "TRACKNUMBER=%tracknr%" -T "GENRE=%genre%" %source% -o %dest%

TOC of the extracted CD

     Track |   Start  |  Length  | Start sector | End sector
    ---------------------------------------------------------
        1  |  0:00.00 |  2:44.60 |         0    |    12359
        2  |  2:44.60 |  6:04.60 |     12360    |    39719
        3  |  8:49.45 |  4:26.16 |     39720    |    59685
        4  | 13:15.61 |  5:24.60 |     59686    |    84045
        5  | 18:40.46 |  4:15.73 |     84046    |   103243
        6  | 22:56.44 |  5:02.40 |    103244    |   125933
        7  | 27:59.09 |  4:50.11 |    125934    |   147694
        8  | 32:49.20 |  4:11.10 |    147695    |   166529
        9  | 37:00.30 |  4:46.60 |    166530    |   188039
       10  | 41:47.15 |  4:37.60 |    188040    |   208874
       11  | 46:25.00 |  1:50.10 |    208875    |   217134

Track  1

     Filename R:\iRO\Rip\Enter To Exit\01-Enduser-In_Any_Event.wav

     Pre-gap length  0:00:02.00

     Peak level 98.8 %
     Extraction speed 2.2 X
     Track quality 100.0 %
     Test CRC F7C9BE15
     Copy CRC F7C9BE15
     Track not present in AccurateRip database
     Copy OK

Track  2

     Filename R:\iRO\Rip\Enter To Exit\02-Enduser-Ab_Minus.wav

     Pre-gap length  0:00:02.50

     Peak level 98.8 %
     Extraction speed 2.6 X
     Track quality 100.0 %
     Test CRC 030C2358
     Copy CRC 030C2358
     Track not present in AccurateRip database
     Copy OK

Track  3

     Filename R:\iRO\Rip\Enter To Exit\03-Enduser-Projection.wav

     Pre-gap length  0:00:02.50

     Peak level 98.8 %
     Extraction speed 2.6 X
     Track quality 99.9 %
     Test CRC 3B09FB3B
     Copy CRC 3B09FB3B
     Track not present in AccurateRip database
     Copy OK

Track  4

     Filename R:\iRO\Rip\Enter To Exit\04-Enduser-Enter_To_Exit.wav

     Pre-gap length  0:00:02.50

     Peak level 98.8 %
     Extraction speed 3.3 X
     Track quality 100.0 %
     Test CRC 2D317958
     Copy CRC 2D317958
     Track not present in AccurateRip database
     Copy OK

Track  5

     Filename R:\iRO\Rip\Enter To Exit\05-Enduser-Resist.wav

     Pre-gap length  0:00:02.50

     Peak level 98.8 %
     Extraction speed 3.1 X
     Track quality 99.9 %
     Test CRC 6AEB10A0
     Copy CRC 6AEB10A0
     Track not present in AccurateRip database
     Copy OK

Track  6

     Filename R:\iRO\Rip\Enter To Exit\06-Enduser-Beneath.wav

     Pre-gap length  0:00:03.30

     Peak level 98.8 %
     Extraction speed 3.7 X
     Track quality 100.0 %
     Test CRC 04140F67
     Copy CRC 04140F67
     Track not present in AccurateRip database
     Copy OK

Track  7

     Filename R:\iRO\Rip\Enter To Exit\07-Enduser-Desolation.wav

     Pre-gap length  0:00:02.30

     Peak level 98.8 %
     Extraction speed 3.5 X
     Track quality 99.9 %
     Test CRC D47D0ACE
     Copy CRC D47D0ACE
     Track not present in AccurateRip database
     Copy OK

Track  8

     Filename R:\iRO\Rip\Enter To Exit\08-Enduser-Subtraction.wav

     Pre-gap length  0:00:02.50

     Peak level 96.6 %
     Extraction speed 4.1 X
     Track quality 100.0 %
     Test CRC 8A39E2B7
     Copy CRC 8A39E2B7
     Track not present in AccurateRip database
     Copy OK

Track  9

     Filename R:\iRO\Rip\Enter To Exit\09-Enduser-When_Faith_Wasn't_Enough_(Awake_Version).wav

     Pre-gap length  0:00:03.00

     Peak level 98.8 %
     Extraction speed 3.8 X
     Track quality 99.9 %
     Test CRC 870DE6B8
     Copy CRC 870DE6B8
     Track not present in AccurateRip database
     Copy OK

Track 10

     Filename R:\iRO\Rip\Enter To Exit\10-Enduser-Emerge.wav

     Pre-gap length  0:00:02.50

     Peak level 98.8 %
     Extraction speed 4.4 X
     Track quality 100.0 %
     Test CRC A5A308AE
     Copy CRC A5A308AE
     Track not present in AccurateRip database
     Copy OK

Track 11

     Filename R:\iRO\Rip\Enter To Exit\11-Enduser-Sleep.wav

     Pre-gap length  0:00:02.50

     Peak level 98.8 %
     Extraction speed 3.8 X
     Track quality 100.0 %
     Test CRC 5F82F0B8
     Copy CRC 5F82F0B8
     Track not present in AccurateRip database
     Copy OK

None of the tracks are present in the AccurateRip database

No errors occurred

End of status report

---- CUETools DB Plugin V2.1.6

[CTDB TOCID: tfNr0HGxl5a5hQrlvqFQAgs9BGc-] disk not present in database
Submit result: tfNr0HGxl5a5hQrlvqFQAgs9BGc- has been uploaded

==== Log checksum 8CBB66F0591883D368130F2F2063B8A701A91E75E0D1FF4A7DFCED52D543FEBD ====

Код:

REM GENRE "Drum & Bass"
REM DATE 2016
REM DISCID 9A0B4F0B
REM COMMENT "ExactAudioCopy v1.1"
PERFORMER End.user
TITLE "Enter To Exit"
FILE "01. In Any Event.flac" WAVE
  TRACK 1 AUDIO
    TITLE "In Any Event"
    PERFORMER End.User
    INDEX 01 00:00:00
FILE "02. Ab Minus.flac" WAVE
  TRACK 2 AUDIO
    TITLE "Ab Minus"
    PERFORMER End.User
    INDEX 01 00:00:00
FILE "03. Projection.flac" WAVE
  TRACK 3 AUDIO
    TITLE Projection
    PERFORMER End.User
    INDEX 01 00:00:00
FILE "04. Enter To Exit.flac" WAVE
  TRACK 4 AUDIO
    TITLE "Enter To Exit"
    PERFORMER End.User
    INDEX 01 00:00:00
FILE "05. Resist.flac" WAVE
  TRACK 5 AUDIO
    TITLE Resist
    PERFORMER End.User
    INDEX 01 00:00:00
FILE "06. Beneath.flac" WAVE
  TRACK 6 AUDIO
    TITLE Beneath
    PERFORMER End.User
    INDEX 01 00:00:00
FILE "07. Desolation.flac" WAVE
  TRACK 7 AUDIO
    TITLE Desolation
    PERFORMER End.User
    INDEX 01 00:00:00
FILE "08. Subtraction.flac" WAVE
  TRACK 8 AUDIO
    TITLE Subtraction
    PERFORMER End.User
    INDEX 01 00:00:00
FILE "09. When Faith Wasn't Enough (Awake Version).flac" WAVE
  TRACK 9 AUDIO
    TITLE "When Faith Wasn't Enough (Awake Version)"
    PERFORMER End.User
    INDEX 01 00:00:00
FILE "10. Emerge.flac" WAVE
  TRACK 10 AUDIO
    TITLE Emerge
    PERFORMER End.User
    INDEX 01 00:00:00
FILE "11. Sleep.flac" WAVE
  TRACK 11 AUDIO
    TITLE Sleep
    PERFORMER End.User
    INDEX 01 00:00:00

Этот торрент недоступен для скачивания без регистрации, однако доступен по публичной magnet-ссылке (источники с публичных трекеров). Перед использованием ссылки прочтите, пожалуйста Пользовательское соглашение, а также как можно дольше оставайтесь на раздаче! Для того, чтобы скачать сам торрент-файл (который видит больше источников), а также для того, чтобы поблагодарить релизера, вам необходимо зарегистрироваться. Если регистрироваться лень - вы можете также попробовать скачать релиз по нашим партнерским ссылкам ниже.

[underverse.me].t76776.torrent
Трекер: Зарегистрирован   [ 07.03.2017 19:29 ]  

Статус: проверено (by Бишеп at 08.03.2017 13:14)
Поблагодарили: 1 человек
Тип торрента: публичный - доступные источники с открытых трекеров: 
Размер: 296 MB (занимает 0,07 DVDR, для записи нужно 1 болванка DVDR/RW)
 
 
Похожие темы
Форум Тема Автор Торрент Отв. Посл. сооб.
Drum & Bass, Jungle (Drum & Bass, Jungle) Dead Man's Chest - Throwing Shades (2017) [MP3, 320 kbps CBR] Darkferse
2 | 0

0 | 150

2

11.07.2017 08:59

Drum & Bass, Jungle (Drum & Bass) BCee - Thanks For Joining Us (2016) [MP3, 320 kbps] ANDRAKO
2 | 2

0 | 578

3

25.12.2016 07:29

Drum & Bass, Jungle (Drum & Bass) Blu Mar Ten - Empire State (2016) [MP3, 320 kbps] ANDRAKO
15 | 3

0 | 607

7

25.12.2016 07:08

Drum & Bass, Jungle (Drum & Bass) VA - Пиратская Станция Apocalypse (2012) [MP3, 320 kbps] PainKiler
0 | 0

2 | 1515

9

13.02.2012 20:44

Drum & Bass, Jungle (Drum & Bass) Hospitality Drum & Bass 2012 (Unmixed) (2012) [MP3, 320 kbps] PainKiler
0 | 0

1 | 1351

11

03.03.2014 11:20

Drum & Bass, Jungle (Drum & Bass) Straight Up Drum & Bass! (2012) [MP3, 320 kbps] PainKiler
0 | 0

0 | 1255

12

27.02.2012 08:35

Drum & Bass, Jungle (Drum & Bass) SPL - Forever Lost (2012) [MP3, 320 kbps] PainKiler
0 | 0

0 | 1320

9

06.03.2012 14:21

Drum & Bass, Jungle (Drum & Bass) VA - A.R.M.O.R. 2 (2012) [MP3, 320 kbps] PainKiler
0 | 0

0 | 1503

7

17.03.2012 11:36

Drum & Bass, Jungle (Drum & Bass) Netsky - 2 (2012) [MP3, 320 kbps] razor123
0 | 0

1 | 1457

1

15.08.2012 14:20

Drum & Bass, Jungle (Drum & Bass, Drumstep, Dubstep, Garage) Netsky - 2 (Deluxe) (2012) [MP3, 320 kbps CBR] terra07
3 | 0

1 | 1834

30

08.04.2015 15:06


Яндекс.Метрика powered by Sphinx


В Н И М А Н И Е
Сайт не распространяет и не хранит электронные версии произведений, а лишь бесплатно и без коммерческой выгоды (не требуя взамен платы,
SMS и т.д.) предоставляет доступ к создаваемому пользователями каталогу ссылок на торрент-файлы, которые содержат только списки хеш-сумм.
Убедительная просьба с жалобами обращаться напрямую к пользователю, разместившему торрент файл.

Вверх