Loading...
Error

(Power Metal) Taken - Taken (Japanese Edition) (2016) [FLAC (Image+.Cue), Lossless]

Статистика раздачи
Размер:  609 MB   |    Зарегистрирован:  10 месяцев   |    Скачан:  2 раза

Полного источника не было: 6 месяцев

Сидов:  0  |  0 KB/s  ]   Личеров:  0  |  0 KB/s  ]

* - сиды/пиры с внешних источников

   
 
Автор Сообщение

Бишеп Пол:Муж

07-Янв-2017 18:25

Taken - Taken (Japanese Edition)

Жанр: Power Metal
Год выпуска: 2016
Источник: CD
Производитель диска: Spiritual Beast - IUCP-16256
Аудиокодек: FLAC
Тип рипа: Image+.CUE
Битрейт аудио: lossless
Продолжительность: 01:11:06


Треклист:
01. Tales of Glory
02. Modern Messiah
03. Wormy Brains
04. On the Road Again
05. Afterlife
06. Forgotten Realms
07. Under the Skies of Asia
08. The Last Deadly Deeds
09. The Seven Seas
10. Distant Shores
11. The Slaughter of the Last Cursed
12. Metal Crowd (Bonus Track)

Код:

Exact Audio Copy V1.3 from 2. September 2016

EAC extraction logfile from 4. January 2017, 16:19

Taken / Taken (Japan)

Used drive  : ATAPI   iHAS122   W   Adapter: 2  ID: 0

Read mode               : Secure
Utilize accurate stream : Yes
Defeat audio cache      : Yes
Make use of C2 pointers : No

Read offset correction                      : 48
Overread into Lead-In and Lead-Out          : No
Fill up missing offset samples with silence : Yes
Delete leading and trailing silent blocks   : No
Null samples used in CRC calculations       : Yes
Used interface                              : Installed external ASPI interface

Used output format              : User Defined Encoder
Selected bitrate                : 1024 kBit/s
Quality                         : High
Add ID3 tag                     : Yes
Command line compressor         : C:\Program Files\FLAC\flac.exe
Additional command line options : -V -8 -T "Date=%year%" -T "Genre=%genre%" -T"COMMENT=Ripped by  Ilijan" -8 -V %source%

TOC of the extracted CD

     Track |   Start  |  Length  | Start sector | End sector
    ---------------------------------------------------------
        1  |  0:00.00 |  5:30.51 |         0    |    24800   
        2  |  5:30.51 |  4:27.56 |     24801    |    44881   
        3  |  9:58.32 |  4:41.73 |     44882    |    66029   
        4  | 14:40.30 |  5:44.49 |     66030    |    91878   
        5  | 20:25.04 |  9:00.70 |     91879    |   132448   
        6  | 29:25.74 |  6:15.53 |    132449    |   160626   
        7  | 35:41.52 |  5:08.36 |    160627    |   183762   
        8  | 40:50.13 |  5:58.24 |    183763    |   210636   
        9  | 46:48.37 |  1:12.39 |    210637    |   216075   
       10  | 48:01.01 |  6:02.45 |    216076    |   243270   
       11  | 54:03.46 | 11:54.26 |    243271    |   296846   
       12  | 65:57.72 |  5:08.48 |    296847    |   319994   

Range status and errors

Selected range

     Filename D:\ilко\Taken - Taken (Japan).wav

     Peak level 100.0 %
     Extraction speed 4.4 X
     Range quality 100.0 %
     Test CRC AEDAD7D4
     Copy CRC AEDAD7D4
     Copy OK

No errors occurred

 
AccurateRip summary
 
Track  1  not present in database
Track  2  not present in database
Track  3  not present in database
Track  4  not present in database
Track  5  not present in database
Track  6  not present in database
Track  7  not present in database
Track  8  not present in database
Track  9  not present in database
Track 10  not present in database
Track 11  not present in database
Track 12  not present in database
 
None of the tracks are present in the AccurateRip database

End of status report

---- CUETools DB Plugin V2.1.6

[CTDB TOCID: gRejyoRdfX_xOSj5qXd364AbgD8-] found
Submit result: gRejyoRdfX_xOSj5qXd364AbgD8- has been confirmed
Track | CTDB Status
  1   | (1/1) Accurately ripped
  2   | (1/1) Accurately ripped
  3   | (1/1) Accurately ripped
  4   | (1/1) Accurately ripped
  5   | (1/1) Accurately ripped
  6   | (1/1) Accurately ripped
  7   | (1/1) Accurately ripped
  8   | (1/1) Accurately ripped
  9   | (1/1) Accurately ripped
 10   | (1/1) Accurately ripped
 11   | (1/1) Accurately ripped
 12   | (1/1) Accurately ripped

==== Log checksum F0F9449892EE5F86FFAE5E38B5DBC53EF95BE4AFF1D6A4ACD2638109EE61FC87 ====

Код:

REM GENRE "Power Metal"
REM DATE 2016
REM DISCID A210AA0C
REM COMMENT "ExactAudioCopy v1.3"
PERFORMER "Taken"
TITLE "Taken (Japan)"
FILE "Taken - Taken (Japan).flac" WAVE
  TRACK 01 AUDIO
    TITLE "Tales Of Glory"
    PERFORMER "Taken"
    INDEX 01 00:00:00
  TRACK 02 AUDIO
    TITLE "Modern Messiah"
    PERFORMER "Taken"
    INDEX 00 05:28:60
    INDEX 01 05:30:51
  TRACK 03 AUDIO
    TITLE "Wormy Brains"
    PERFORMER "Taken"
    INDEX 00 09:56:42
    INDEX 01 09:58:32
  TRACK 04 AUDIO
    TITLE "On The Road Again"
    PERFORMER "Taken"
    INDEX 00 14:38:45
    INDEX 01 14:40:30
  TRACK 05 AUDIO
    TITLE "Afterlife"
    PERFORMER "Taken"
    INDEX 00 20:23:17
    INDEX 01 20:25:04
  TRACK 06 AUDIO
    TITLE "Forgotten Realms"
    PERFORMER "Taken"
    INDEX 00 29:24:11
    INDEX 01 29:25:74
  TRACK 07 AUDIO
    TITLE "Under The Skies Of Asia"
    PERFORMER "Taken"
    INDEX 00 35:39:69
    INDEX 01 35:41:52
  TRACK 08 AUDIO
    TITLE "The Last Deadly Deeds"
    PERFORMER "Taken"
    INDEX 00 40:48:28
    INDEX 01 40:50:13
  TRACK 09 AUDIO
    TITLE "The Seven Seas"
    PERFORMER "Taken"
    INDEX 00 46:44:57
    INDEX 01 46:48:37
  TRACK 10 AUDIO
    TITLE "Distant Shores"
    PERFORMER "Taken"
    INDEX 01 48:01:01
  TRACK 11 AUDIO
    TITLE "The Slaughter Of The Last Cursed"
    PERFORMER "Taken"
    INDEX 00 54:01:57
    INDEX 01 54:03:46
  TRACK 12 AUDIO
    TITLE "Metal Crowd (Bonus Track)"
    PERFORMER "Taken"
    INDEX 00 65:54:72
    INDEX 01 65:57:72

Этот торрент недоступен для скачивания без регистрации, однако доступен по публичной magnet-ссылке (источники с публичных трекеров). Перед использованием ссылки прочтите, пожалуйста Пользовательское соглашение, а также как можно дольше оставайтесь на раздаче! Для того, чтобы скачать сам торрент-файл (который видит больше источников), а также для того, чтобы поблагодарить релизера, вам необходимо зарегистрироваться. Если регистрироваться лень - вы можете также попробовать скачать релиз по нашим партнерским ссылкам ниже.

[underverse.me].t76705.torrent
Трекер: Зарегистрирован   [ 07.01.2017 18:25 ]  

Статус: проверено (by Бишеп at 07.01.2017 18:25)
Поблагодарили: пока никто не поблагодарил...
Тип торрента: публичный - доступные источники с открытых трекеров: 
Размер: 609 MB (занимает 0,14 DVDR, для записи нужно 1 болванка DVDR/RW)
 
 
Похожие темы
Форум Тема Автор Торрент Отв. Посл. сооб.
Зарубежный Black, Death, Heavy, Thrash, Power, Folk, Gothic Metal (Power Metal) Dawn Of Destiny - Praying To The World (2012) [MP3, CBR 320 kbps] ZondeR
0 | 0

1 | 1042

0

04.10.2012 06:25

Зарубежный Black, Death, Heavy, Thrash, Power, Folk, Gothic Metal (Power Metal, Speed Metal) Helloween - Burning Sun [EP] (2012) [MP3, CBR 320 kbps] ZondeR
0 | 0

0 | 1336

4

30.10.2012 15:03

Зарубежный Black, Death, Heavy, Thrash, Power, Folk, Gothic Metal (Power Metal) Sabaton - Coat Of Arms (2010) Limited Ed. [MP3, 320 kbps CBR] DeadlySaint
0 | 0

0 | 965

0

03.12.2012 07:06

Зарубежный Black, Death, Heavy, Thrash, Power, Folk, Gothic Metal (Power Metal) Gamma Ray - Master of Confusion (EP) (2013) [MP3, 320 kbps CBR] Jimmy
0 | 0

0 | 1345

8

15.03.2013 15:52

Зарубежный Black, Death, Heavy, Thrash, Power, Folk, Gothic Metal (Power Metal, Symphonic Metal) Megaromania - Megaromania (2013) [MP3, 320 kbps CBR] Jimmy
1 | 1

0 | 1275

4

17.03.2013 12:02

Зарубежный Black, Death, Heavy, Thrash, Power, Folk, Gothic Metal (Power Metal) Human Fortress - Raided Land (2013) [MP3, 320 kbps] Jimmy
0 | 0

0 | 1629

2

30.11.2013 11:35

Зарубежный Black, Death, Heavy, Thrash, Power, Folk, Gothic Metal (Power Metal) Sonata Arctica - Pariah's Child (2014) [MP3, 320 kbps] Jimmy
0 | 0

0 | 1672

14

26.03.2014 03:58

Зарубежный Black, Death, Heavy, Thrash, Power, Folk, Gothic Metal (Power Metal) Edguy - Spасе Роlice - Defenders of the Сrоwn [Limited Edition 2CD] (2014) [MP3, 320 kbps] Jimmy
0 | 0

0 | 1086

9

24.04.2014 04:06

Зарубежный Black, Death, Heavy, Thrash, Power, Folk, Gothic Metal (Power Metal) Rage Of Romance - Rage Of Romance (2014) [FLAC (Image+.CUE), Lossless] Бишеп
5 | 0

0 | 984

6

05.11.2014 13:40

Зарубежный Black, Death, Heavy, Thrash, Power, Folk, Gothic Metal (Power Metal, Symphonic Metal, Folk Metal) To the Mountains - Struggle of the Ages (2017) [MP3, 320 kbps CBR] Darkferse
1 | 1

0 | 545

3

23.05.2017 08:34


Яндекс.Метрика powered by Sphinx


В Н И М А Н И Е
Сайт не распространяет и не хранит электронные версии произведений, а лишь бесплатно и без коммерческой выгоды (не требуя взамен платы,
SMS и т.д.) предоставляет доступ к создаваемому пользователями каталогу ссылок на торрент-файлы, которые содержат только списки хеш-сумм.
Убедительная просьба с жалобами обращаться напрямую к пользователю, разместившему торрент файл.

Вверх