Loading...
Error

Любовь без правил (Дмитрий Астрахан) [2016 г., комедия, WEB-DLRip] Rus (iTunes)

Статистика раздачи
Размер:  746 MB   |    Зарегистрирован:  11 месяцев   |    Скачан:  9 раз

Полного источника не было: 2 месяца 11 дней

Сидов:  0  |  0 KB/s  ]   Личеров:  0  |  0 KB/s  ]

* - сиды/пиры с внешних источников

   
 
Автор Сообщение

makkol Пол:Муж

26-Дек-2016 15:36

Любовь без правил
«Народная комедия про это»


Год выпуска: 2016
Жанр: комедия
Производство: Россия [Беларусьфильм, Каскад]
Режиссер: Дмитрий Астрахан
В ролях: Виктор Васильев, Анна Горшкова, Олег Васильков, Ирина Погодина, Анна Назарова, Иван Щетко, Софья Синицына, Наталья Барановская, Людмила Баталова, Георгий Малявский
Сюжет фильма:
В городе Зареченске жены часто отказывали мужьям. Когда же проблема накрыла и мэра города, Сергей Николаевич не стал терпеть и начал действовать. С родственником жены, местным олигархом, они решают перепрофилировать построенный на противоположном берегу реки санаторий в «Оздоровительный центр». Для чего бизнесмен приглашает из столицы специально обученный «медицинский персонал». И вот уже на другую сторону реки пришвартовывается катер с симпатичными, молодыми и очень профессиональными «медсестрами» и «санитарками». Вооружившись биноклями зареченские жены придирчиво рассматривают конкуренток. А что-же мужья? Надев парадные костюмы и галстуки они садятся в лодки и через несколько минут оказываются на другом берегу, среди молодых, красивых, покладистых и совсем не стервозных девушек. Другие правила или наоборот, любовь без правил?

  • Российская премьера: 10 ноября 2016


Качество видео: WEB-DLRip

Продолжительность: 01:30:02
Формат: AVI
Видео: XviD, 688x288 (2.40:1), 25.000 fps, 1025 kbps
Аудио: русский, оригинал (iTunes), MP3 2.0, 48 kHz, 128 kbps

Код:

Format : AVI
Format/Info : Audio Video Interleave
File size : 746 MiB
Duration : 1h 30mn
Overall bit rate : 1 159 Kbps

Video
ID : 0
Format : MPEG-4 Visual
Format profile : Advanced Simple@L5
Format settings, BVOP : 1
Format settings, QPel : No
Format settings, GMC : No warppoints
Format settings, Matrix : Custom
Codec ID : XVID
Codec ID/Hint : XviD
Duration : 1h 30mn
Bit rate : 1 025 Kbps
Width : 688 pixels
Height : 288 pixels
Display aspect ratio : 2.40:1
Frame rate : 25.000 fps
Color space : YUV
Chroma subsampling : 4:2:0
Bit depth : 8 bits
Scan type : Progressive
Compression mode : Lossy
Bits/(Pixel*Frame) : 0.207
Stream size : 660 MiB (88%)
Writing library : XviD 73

Audio
ID : 1
Format : MPEG Audio
Format version : Version 1
Format profile : Layer 3
Mode : Joint stereo
Mode extension : MS Stereo
Codec ID : 55
Codec ID/Hint : MP3
Duration : 1h 30mn
Bit rate mode : Constant
Bit rate : 128 Kbps
Channel(s) : 2 channels
Sampling rate : 48.0 KHz
Compression mode : Lossy
Stream size : 82.4 MiB (11%)
Alignment : Aligned on interleaves
Interleave, duration : 160 ms (4.00 video frames)
Interleave, preload duration : 216 ms
Title : iTunes
Writing library : LAME3.99r
Encoding settings : -m j -V 4 -q 2 -lowpass 17 -b 128
Релиз:


picpicpicpicpic
Для увеличения картинки щелкните мышкой по превью

Этот торрент недоступен для скачивания без регистрации, однако доступен по публичной magnet-ссылке (источники с публичных трекеров). Перед использованием ссылки прочтите, пожалуйста Пользовательское соглашение, а также как можно дольше оставайтесь на раздаче! Для того, чтобы скачать сам торрент-файл (который видит больше источников), а также для того, чтобы поблагодарить релизера, вам необходимо зарегистрироваться. Если регистрироваться лень - вы можете также попробовать скачать релиз по нашим партнерским ссылкам ниже.

[underverse.me].t76136.torrent
Трекер: Зарегистрирован   [ 26.12.2016 15:36 ]  

Статус: T временная (by makkol at 26.12.2016 15:36)
Поблагодарили: пока никто не поблагодарил...
Тип торрента: публичный - доступные источники с открытых трекеров: 
Размер: 746 MB (занимает 0,17 DVDR, для записи нужно 1 болванка DVDR/RW)
 
 
Похожие темы
Форум Тема Автор Торрент Отв. Посл. сооб.
Зарубежное кино [DVDRip, Low-Res HDRip, и т.д.] Любовь без пересадок / Amour & turbulences (Александр Кастаньетти / Alexandre Castagnetti) [2013 г., мелодрама, комедия, HDRip] Dub 90ytr90
0 | 0

0 | 1007

47

06.08.2013 05:39

Зарубежное кино [DVDRip, Low-Res HDRip, и т.д.] Любовь без пересадок / Amour & Turbulences (Александр Кастаньетти / Alexandre Castagnetti) [2013 г., мелодрама, комедия, BDRip] Dub (iTunes Russia) 90ytr90
18 | 0

0 | 1059

25

12.01.2014 14:15

T Зарубежное кино [DVDRip, Low-Res HDRip, и т.д.] Любовь без участия / Anything for Love (Терри Ингрэм) [2016 г., мелодрама, комедия, HDTVRip] MVO makkol
11 | 0

0 | 542

8

05.10.2016 14:06

Зарубежное кино [DVDRip, Low-Res HDRip, и т.д.] Любовь без обязательств / Sleeping with Other People (Лесли Хэдланд) [2015 г., комедия, HDRip] DVO makkol
0 | 0

0 | 747

43

22.12.2015 21:51

T Зарубежное кино [DVDRip, Low-Res HDRip, и т.д.] Любовь без обязательств / Sleeping with Other People (Лесли Хэдланд / Leslye Headland) [2015 г., комедия, HDRip] Dub (iTunes) 90ytr90
3 | 0

0 | 826

29

08.01.2016 19:50

T Зарубежное кино [DVDRip, Low-Res HDRip, и т.д.] Любовь без обязательств / Sleeping with Other People (Лесли Хэдланд / Leslye Headland) [2015 г., комедия, BDRip-AVC] Dub (iTunes) + Sub (Eng) 90ytr90
3 | 0

0 | 575

5

08.01.2016 20:01

T Зарубежное кино [DVDRip, Low-Res HDRip, и т.д.] Любовь без обязательств / Sleeping with Other People (Лесли Хэдланд / Leslye Headland) [2015 г., комедия, BDRip-AVC] Dub (iTunes) + Original (Eng) + Sub (Eng) 90ytr90
7 | 0

0 | 603

9

08.01.2016 20:08

T Зарубежное кино [DVDRip, Low-Res HDRip, и т.д.] Любовь без тормозов / Spin Out (Тим Фергюсон / Tim Ferguson, Марк Грейси / Marc Gracie) [2016 г., мелодрама, комедия, WEB-DLRip] MVO (iTunes) 90ytr90
139 | 2

0 | 635

6

20.12.2016 11:15

T Зарубежное кино [DVDRip, Low-Res HDRip, и т.д.] Любовь без тормозов / Spin Out (Тим Фергюсон / Tim Ferguson, Марк Грейси / Marc Gracie) [2016 г., мелодрама, комедия, WEB-DLRip] MVO (iTunes) 90ytr90
5 | 0

0 | 550

5

20.12.2016 16:25

T Наше кино [DVDRip, Low-Res HDRip, и т.д.] Любовь без правил (Дмитрий Астрахан) [2016 г., комедия, WEB-DLRip] Rus (iTunes) makkol
260 | 1

0 | 370

15

26.12.2016 15:16


Яндекс.Метрика powered by Sphinx


В Н И М А Н И Е
Сайт не распространяет и не хранит электронные версии произведений, а лишь бесплатно и без коммерческой выгоды (не требуя взамен платы,
SMS и т.д.) предоставляет доступ к создаваемому пользователями каталогу ссылок на торрент-файлы, которые содержат только списки хеш-сумм.
Убедительная просьба с жалобами обращаться напрямую к пользователю, разместившему торрент файл.

Вверх