Loading...
Error

Любовь без правил (Дмитрий Астрахан) [2016 г., комедия, WEB-DLRip] Rus (iTunes)

Статистика раздачи
Размер:  1,37 GB   |    Зарегистрирован:  10 месяцев   |    Скачан:  15 раз

Полного источника не было: 5 дней

Сидов:  0  |  0 KB/s  ]   Личеров:  0  |  0 KB/s  ]

* - сиды/пиры с внешних источников

   
 
Автор Сообщение

makkol Пол:Муж

26-Дек-2016 15:16

Любовь без правил
«Народная комедия про это»


Год выпуска: 2016
Жанр: комедия
Производство: Россия [Беларусьфильм, Каскад]
Режиссер: Дмитрий Астрахан
В ролях: Виктор Васильев, Анна Горшкова, Олег Васильков, Ирина Погодина, Анна Назарова, Иван Щетко, Софья Синицына, Наталья Барановская, Людмила Баталова, Георгий Малявский
Сюжет фильма:
В городе Зареченске жены часто отказывали мужьям. Когда же проблема накрыла и мэра города, Сергей Николаевич не стал терпеть и начал действовать. С родственником жены, местным олигархом, они решают перепрофилировать построенный на противоположном берегу реки санаторий в «Оздоровительный центр». Для чего бизнесмен приглашает из столицы специально обученный «медицинский персонал». И вот уже на другую сторону реки пришвартовывается катер с симпатичными, молодыми и очень профессиональными «медсестрами» и «санитарками». Вооружившись биноклями зареченские жены придирчиво рассматривают конкуренток. А что-же мужья? Надев парадные костюмы и галстуки они садятся в лодки и через несколько минут оказываются на другом берегу, среди молодых, красивых, покладистых и совсем не стервозных девушек. Другие правила или наоборот, любовь без правил?

  • Российская премьера: 10 ноября 2016


Качество видео: WEB-DLRip

Продолжительность: 01:30:02
Формат: AVI
Видео: XviD, 720x304 (2.35:1), 25.000 fps, 1780 kbps
Аудио: русский, оригинал (iTunes), AC3 2.0, 48 kHz, 384 kbps

Код:

Формат                                   : AVI
Формат/Информация                        : Audio Video Interleave
Размер файла                             : 1,37 Гбайт
Продолжительность                        : 1 ч. 30 м.
Общий поток                              : 2174 Кбит/сек
Программа кодирования                    : VirtualDubMod 1.5.10.2 (build 2540/release)
Библиотека кодирования                   : VirtualDubMod build 2540/release

Видео
Идентификатор                            : 0
Формат                                   : MPEG-4 Visual
Профиль формата                          : Advanced Simple@L5
Параметр BVOP формата                    : 2
Параметр QPel формата                    : Нет
Параметр GMC формата                     : Без точки перехода
Параметр матрицы формата                 : Default (MPEG)
Идентификатор кодека                     : XVID
Идентификатор кодека/Подсказка           : XviD
Продолжительность                        : 1 ч. 30 м.
Битрейт                                  : 1780 Кбит/сек
Ширина                                   : 720 пикселей
Высота                                   : 304 пикселя
Соотношение сторон                       : 2,35:1
Частота кадров                           : 25,000 кадров/сек
Цветовое пространство                    : YUV
Субдискретизация насыщенности            : 4:2:0
Битовая глубина                          : 8 бит
Тип развёртки                            : Прогрессивная
Метод сжатия                             : С потерями
Бит/(Пиксели*Кадры)                      : 0.325
Размер потока                            : 1,12 Гбайт (82%)
Библиотека кодирования                   : XviD 1.2.1 (UTC 2008-12-04)

Аудио
Идентификатор                            : 1
Формат                                   : AC-3
Формат/Информация                        : Audio Coding 3
Расширение режима                        : CM (complete main)
Параметр Endianness формата              : Big
Идентификатор кодека                     : 2000
Продолжительность                        : 1 ч. 30 м.
Вид битрейта                             : Постоянный
Битрейт                                  : 384 Кбит/сек
Каналы                                   : 2 канала
Расположение каналов                     : Front: L R
Частота                                  : 48,0 КГц
Частота кадров                           : 31,250 кадров/сек (1536 spf)
Метод сжатия                             : С потерями
Размер потока                            : 247 Мбайт (18%)
Выравнивание                             : Разделение по промежуткам
Продолжительность промежутка             : 40  мс. (1,00 видеокадр)
Время предзагрузки промежутка            : 500  мс.


picpicpicpicpic
Для увеличения картинки щелкните мышкой по превью

Этот торрент недоступен для скачивания без регистрации, однако доступен по публичной magnet-ссылке (источники с публичных трекеров). Перед использованием ссылки прочтите, пожалуйста Пользовательское соглашение, а также как можно дольше оставайтесь на раздаче! Для того, чтобы скачать сам торрент-файл (который видит больше источников), а также для того, чтобы поблагодарить релизера, вам необходимо зарегистрироваться. Если регистрироваться лень - вы можете также попробовать скачать релиз по нашим партнерским ссылкам ниже.

[underverse.me].t76130.torrent
Трекер: Зарегистрирован   [ 26.12.2016 15:16 ]  

Статус: T временная (by makkol at 26.12.2016 15:18)
Поблагодарили: пока никто не поблагодарил...
Тип торрента: публичный - доступные источники с открытых трекеров: 
Размер: 1,37 GB (занимает 0,31 DVDR, для записи нужно 1 болванка DVDR/RW)
 
 
Похожие темы
Форум Тема Автор Торрент Отв. Посл. сооб.
Зарубежное кино [DVDRip, Low-Res HDRip, и т.д.] Любовь без пересадок / Amour & turbulences (Александр Кастаньетти / Alexandre Castagnetti) [2013 г., мелодрама, комедия, HDRip] Dub 90ytr90
0 | 0

0 | 997

47

06.08.2013 05:39

Зарубежное кино [DVDRip, Low-Res HDRip, и т.д.] Любовь без пересадок / Amour & Turbulences (Александр Кастаньетти / Alexandre Castagnetti) [2013 г., мелодрама, комедия, BDRip] Dub (iTunes Russia) 90ytr90
18 | 0

0 | 1049

25

12.01.2014 14:15

T Зарубежное кино [DVDRip, Low-Res HDRip, и т.д.] Любовь без участия / Anything for Love (Терри Ингрэм) [2016 г., мелодрама, комедия, HDTVRip] MVO makkol
11 | 0

0 | 534

8

05.10.2016 14:06

Зарубежное кино [DVDRip, Low-Res HDRip, и т.д.] Любовь без обязательств / Sleeping with Other People (Лесли Хэдланд) [2015 г., комедия, HDRip] DVO makkol
0 | 0

0 | 733

43

22.12.2015 21:51

T Зарубежное кино [DVDRip, Low-Res HDRip, и т.д.] Любовь без обязательств / Sleeping with Other People (Лесли Хэдланд / Leslye Headland) [2015 г., комедия, HDRip] Dub (iTunes) 90ytr90
3 | 0

0 | 816

29

08.01.2016 19:50

T Зарубежное кино [DVDRip, Low-Res HDRip, и т.д.] Любовь без обязательств / Sleeping with Other People (Лесли Хэдланд / Leslye Headland) [2015 г., комедия, BDRip-AVC] Dub (iTunes) + Sub (Eng) 90ytr90
3 | 0

0 | 566

5

08.01.2016 20:01

T Зарубежное кино [DVDRip, Low-Res HDRip, и т.д.] Любовь без обязательств / Sleeping with Other People (Лесли Хэдланд / Leslye Headland) [2015 г., комедия, BDRip-AVC] Dub (iTunes) + Original (Eng) + Sub (Eng) 90ytr90
7 | 0

0 | 596

9

08.01.2016 20:08

T Зарубежное кино [DVDRip, Low-Res HDRip, и т.д.] Любовь без тормозов / Spin Out (Тим Фергюсон / Tim Ferguson, Марк Грейси / Marc Gracie) [2016 г., мелодрама, комедия, WEB-DLRip] MVO (iTunes) 90ytr90
139 | 2

0 | 627

6

20.12.2016 11:15

T Зарубежное кино [DVDRip, Low-Res HDRip, и т.д.] Любовь без тормозов / Spin Out (Тим Фергюсон / Tim Ferguson, Марк Грейси / Marc Gracie) [2016 г., мелодрама, комедия, WEB-DLRip] MVO (iTunes) 90ytr90
5 | 0

0 | 543

5

20.12.2016 16:25

T Наше кино [DVDRip, Low-Res HDRip, и т.д.] Любовь без правил (Дмитрий Астрахан) [2016 г., комедия, WEB-DLRip] Rus (iTunes) makkol
10 | 0

0 | 377

9

26.12.2016 15:36


Яндекс.Метрика powered by Sphinx


В Н И М А Н И Е
Сайт не распространяет и не хранит электронные версии произведений, а лишь бесплатно и без коммерческой выгоды (не требуя взамен платы,
SMS и т.д.) предоставляет доступ к создаваемому пользователями каталогу ссылок на торрент-файлы, которые содержат только списки хеш-сумм.
Убедительная просьба с жалобами обращаться напрямую к пользователю, разместившему торрент файл.

Вверх