Loading...
Error

Чудо Рождества / Northpole (Дуглас Барр) [2014 г., фэнтези, BD-Remux] MVO + Original

Статистика раздачи
Размер:  13,2 GB   |    Зарегистрирован:  1 год 4 месяца   |    Скачан:  1 раз

Полного источника не было: 3 месяца

Сидов:  0  |  0 KB/s  ]   Личеров:  0  |  0 KB/s  ]

* - сиды/пиры с внешних источников

   
 
Автор Сообщение

makkol Пол:Муж

24-Дек-2016 11:08

Чудо Рождества / Northpole


Год выпуска: 2014
Жанр: фэнтези
Производство: Канада [Canal+, Muse Entertainment Enterprises]
Режиссер: Дуглас Барр
В ролях: Тиффани Тиссен, Джош Хопкинс, Бэйли Мэдисон, Макс Чарльз, Кэндис Гловер, Джонатан Поттс, Ричард Фицпатрик, Стефани Бакстон, Фрэнк Скорпион, Джилл Ст. Джон
Сюжет фильма:
Волшебный город Санта-Клауса всегда существовал благодаря магической силе рождественских торжеств, доброте и любви переполняющей сердца. Однако люди стали слишком заняты своими проблемами и перестали праздновать Рождество. Городу Санты грозит исчезновение. Мальчику по имени Кевин нужно сделать все возможное, чтобы возродить дух Рождества и спасти волшебный город Санта-Клауса от исчезновения.

  • Мировая премьера: 15 ноября 2014


Качество видео: BD-Remux

Продолжительность: 01:24:34
Формат: MKV
Видео: MPEG-4 AVC, 1920x1080 (16:9), 23.976 fps, 20.0 Mbps
Аудио #1: русский, профессиональный многоголосый закадровый (TV 1000 Premium HD), AC3 5.1, 48 kHz, 384 kbps
Аудио #2: английский, оригинал, DTS-HD MA 5.1, 48 kHz, 1964 kbps (DTS Core 5.1, 48 kHz, 1509 kbps)
Субтитры: английские вшитые отключаемые

Код:

Формат : Matroska
Версия формата : Version 4 / Version 2
Размер файла : 13,2 Гбайт
Продолжительность : 1 ч. 24 м.
Режим общего битрейта : Переменный
Общий поток : 22,3 Мбит/сек
Дата кодирования : UTC 2016-12-04 05:37:34
Программа кодирования : mkvmerge v9.6.0 ('Slave To Your Mind') 64bit
Библиотека кодирования : libebml v1.3.4 + libmatroska v1.4.5

Видео
Идентификатор : 1
Формат : AVC
Формат/Информация : Advanced Video Codec
Профиль формата : High@L4.1
Параметр CABAC формата : Да
Параметр ReFrames формата : 4 кадра
Идентификатор кодека : V_MPEG4/ISO/AVC
Продолжительность : 1 ч. 24 м.
Вид битрейта : Переменный
Битрейт : 20,0 Мбит/сек
Максимальный битрейт : 35,0 Мбит/сек
Ширина : 1920 пикселей
Высота : 1080 пикселей
Соотношение сторон : 16:9
Режим частоты кадров : Постоянный
Частота кадров : 23,976 (24000/1001) кадра/сек
Стандарт вещания : NTSC
Цветовое пространство : YUV
Субдискретизация насыщенности : 4:2:0
Битовая глубина : 8 бит
Тип развёртки : Прогрессивная
Бит/(Пиксели*Кадры) : 0.402
Размер потока : 11,8 Гбайт (89%)
Default : Да
Forced : Нет
Цветовой диапазон : Limited
Основные цвета : BT.709
Характеристики трансфера : BT.709
Коэффициенты матрицы : BT.709

Аудио #1
Идентификатор : 2
Формат : AC-3
Формат/Информация : Audio Coding 3
Расширение режима : CM (complete main)
Параметр Endianness формата : Big
Идентификатор кодека : A_AC3
Продолжительность : 1 ч. 24 м.
Вид битрейта : Постоянный
Битрейт : 384 Кбит/сек
Каналы : 6 каналов
Расположение каналов : Front: L C R, Side: L R, LFE
Частота : 48,0 КГц
Частота кадров : 31,250 кадров/сек (1536 spf)
Метод сжатия : С потерями
Размер потока : 232 Мбайт (2%)
Заголовок : MVO @ TV 1000 Premium HD
Язык : Russian
Default : Да
Forced : Нет

Аудио #2
Идентификатор : 3
Формат : DTS
Формат/Информация : Digital Theater Systems
Профиль формата : MA / Core
Режим : 16
Параметр Endianness формата : Big
Идентификатор кодека : A_DTS
Продолжительность : 1 ч. 24 м.
Вид битрейта : Переменный / Постоянный
Битрейт : 1964 Кбит/сек / 1509 Кбит/сек
Каналы : 6 каналов
Расположение каналов : Front: L C R, Side: L R, LFE
Частота : 48,0 КГц
Частота кадров : 93,750 кадра/сек (512 spf)
Битовая глубина : 16 бит
Метод сжатия : Без потерь / Lossy
Размер потока : 1,16 Гбайт (9%)
Заголовок : Original
Язык : English
Default : Нет
Forced : Нет

Текст #1
Идентификатор : 4
Формат : UTF-8
Идентификатор кодека : S_TEXT/UTF8
Идентификатор кодека/Информация : UTF-8 Plain Text
Продолжительность : 1 ч. 23 м.
Битрейт : 83 бит/сек
Count of elements : 1605
Размер потока : 51,1 Кбайт (0%)
Заголовок : Subtitle eng
Язык : English
Default : Нет
Forced : Нет

Текст #2
Идентификатор : 5
Формат : UTF-8
Идентификатор кодека : S_TEXT/UTF8
Идентификатор кодека/Информация : UTF-8 Plain Text
Продолжительность : 1 ч. 23 м.
Битрейт : 88 бит/сек
Count of elements : 1741
Размер потока : 54,2 Кбайт (0%)
Заголовок : Subtitle eng [SDH]
Язык : English
Default : Нет
Forced : Нет

Меню
00:00:00.000 : en:Chapter 1
00:05:47.305 : en:Chapter 2
00:12:11.314 : en:Chapter 3
00:19:10.775 : en:Chapter 4
00:26:27.002 : en:Chapter 5
00:33:47.651 : en:Chapter 6
00:41:59.350 : en:Chapter 7
00:47:01.110 : en:Chapter 8
00:54:42.404 : en:Chapter 9
01:02:31.665 : en:Chapter 10
01:10:23.177 : en:Chapter 11
01:18:05.681 : en:Chapter 12
Rip by vedigo

picpicpicpicpic
Для увеличения картинки щелкните мышкой по превью

Этот торрент недоступен для скачивания без регистрации, однако доступен по публичной magnet-ссылке (источники с публичных трекеров). Перед использованием ссылки прочтите, пожалуйста Пользовательское соглашение, а также как можно дольше оставайтесь на раздаче! Для того, чтобы скачать сам торрент-файл (который видит больше источников), а также для того, чтобы поблагодарить релизера, вам необходимо зарегистрироваться. Если регистрироваться лень - вы можете также попробовать скачать релиз по нашим партнерским ссылкам ниже. Кроме того, зарегистрированным пользователям не показывается всплывающая реклама при скачивании.

[underverse.me].t76029.torrent
Трекер: Зарегистрирован   [ 24.12.2016 11:08 ]  

Статус: проверено (by makkol at 24.12.2016 11:09)
Поблагодарили: пока никто не поблагодарил...
Тип торрента: публичный - доступные источники с открытых трекеров: 
Размер: 13,2 GB (занимает 3,01 DVDR, для записи нужно 4 болванки DVDR/RW)
 
 
Похожие темы
Форум Тема Автор Торрент Отв. Посл. сооб.
Зарубежное кино [DVDRip, Low-Res HDRip, и т.д.] Чудо Рождества / Northpole (Дуглас Барр) [2014 г., фэнтези, HDTVRip] MVO makkol
0 | 0

0 | 430

4

12.01.2016 23:18

Зарубежное кино [DVDRip, Low-Res HDRip, и т.д.] Чудо Рождества / Northpole (Дуглас Барр) [2014 г., фэнтези, BDRip] MVO makkol
1 | 0

0 | 380

2

24.12.2016 10:45

Зарубежное кино [DVDRip, Low-Res HDRip, и т.д.] Чудо Рождества / Northpole (Дуглас Барр) [2014 г., фэнтези, BDRip] MVO makkol
6 | 1

0 | 409

1

24.12.2016 10:38

Архив (зарубежное кино высокого качества) Чудо Рождества / Northpole (Дуглас Барр) [2014 г., фэнтези, BDRip 720p] MVO + Original makkol
0 | 0

1 | 499

0

31.01.2018 18:33


Яндекс.Метрика powered by Sphinx


В Н И М А Н И Е
Сайт не распространяет и не хранит электронные версии произведений, а лишь бесплатно и без коммерческой выгоды (не требуя взамен платы,
SMS и т.д.) предоставляет доступ к создаваемому пользователями каталогу ссылок на торрент-файлы, которые содержат только списки хеш-сумм.
Убедительная просьба с жалобами обращаться напрямую к пользователю, разместившему торрент файл.

Вверх