Loading...
Error

(Progressive House, Trance, Electro, Progressive Trance) Tiesto - Kaleidoscope (2009) [FLAC (Tracks+.CUE), 900-1100 kbps]

Статистика раздачи
Размер:  524 MB   |    Зарегистрирован:  8 лет 7 месяцев   |    Скачан:  14 раз

Полного источника не было: 7 лет 3 месяца

Сидов:  0  |  0 KB/s  ]   Личеров:  0  |  0 KB/s  ]

* - сиды/пиры с внешних источников

   
 
Автор Сообщение

yaha Пол:Муж

20-Окт-2009 18:11

Tiësto - Kaleidoscope

Жанр: Progressive House, Trance, Electro, Progressive Trance
Год выпуска: 2009
Аудиокодек: FLAC
Тип рипа: Tracks+.CUE
Битрейт аудио: 900-1100 kbps
Продолжительность: 01:14:26
Треклист:

01. Tiësto Feat. Jónsi - Kaleidoscope 7:36
02. Tiësto Feat. C.C. Sheffield - Escape Me 4:18
03. Tiësto Feat. Kianna - You Are My Diamond 4:11
04. Tiësto Feat. Sneaky Sound System - I Will Be Here 3:26
05. Tiësto Feat. Priscilla Ahn - I Am Strong 5:39
06. Tiësto Feat. Cary Brothers - Here On Earth 4:56
07. Tiësto - Always Near 1:34
08. Tiësto Feat. Kele Okereke - It's Not The Things You Say 3:15
09. Tiësto - Fresh Fruit 5:24
10. Tiësto Feat. Calvin Harris - Century 4:42
11. Tiësto Feat. Tegan & Sara - Feel It In My Bones 4:52
12. Tiësto Feat. Nelly Furtado - Who Wants To Be Alone 4:36
13. Tiësto - LA Ride 4:13
14. Tiësto - Bend It Like You Don't Care 3:24
15. Tiësto Feat. Emily Haines - Knock You Out 5:07
16. Tiësto - Louder Than Boom 4:10
17. Tiësto - Surrounded By Light 2:40
Exact Audio Copy V0.99 prebeta 5 from 4. May 2009

EAC extraction logfile from 6. October 2009, 23:26

Tiлsto / Kaleidoscope

Used drive : ATAPI DVD A DH16A1L Adapter: 1 ID: 0

Read mode : Secure
Utilize accurate stream : Yes
Defeat audio cache : Yes
Make use of C2 pointers : No

Read offset correction : 6
Overread into Lead-In and Lead-Out : No
Fill up missing offset samples with silence : Yes
Delete leading and trailing silent blocks : No
Null samples used in CRC calculations : Yes
Used interface : Installed external ASPI interface
Gap handling : Appended to previous track

Used output format : User Defined Encoder
Selected bitrate : 192 kBit/s
Quality : High
Add ID3 tag : No
Command line compressor : C:\Program Files\Exact Audio Copy\Flac\flac.exe
Additional command line options : -V -8 -T "artist=%a" -T "title=%t" -T "album=%g" -T "date=%y" -T "tracknumber=%n" -T "genre=%m" %s

TOC of the extracted CD

Track | Start | Length | Start sector | End sector
---------------------------------------------------------
1 | 0:00.00 | 7:36.22 | 0 | 34221
2 | 7:36.22 | 4:17.63 | 34222 | 53559
3 | 11:54.10 | 4:10.72 | 53560 | 72381
4 | 16:05.07 | 3:26.08 | 72382 | 87839
5 | 19:31.15 | 5:39.05 | 87840 | 113269
6 | 25:10.20 | 4:55.40 | 113270 | 135434
7 | 30:05.60 | 1:33.52 | 135435 | 142461
8 | 31:39.37 | 3:14.45 | 142462 | 157056
9 | 34:54.07 | 5:23.63 | 157057 | 181344
10 | 40:17.70 | 4:42.35 | 181345 | 202529
11 | 45:00.30 | 4:52.17 | 202530 | 224446
12 | 49:52.47 | 4:36.33 | 224447 | 245179
13 | 54:29.05 | 4:13.25 | 245180 | 264179
14 | 58:42.30 | 3:23.42 | 264180 | 279446
15 | 62:05.72 | 5:06.43 | 279447 | 302439
16 | 67:12.40 | 4:10.05 | 302440 | 321194
17 | 71:22.45 | 2:39.67 | 321195 | 333186

Track 1

Filename C:\EAC\01. Kaleidoscope (feat. Jуnsi).wav

Pre-gap length 0:00:02.00

Peak level 100.0 %
Track quality 100.0 %
Test CRC DEBCB2B4
Copy CRC DEBCB2B4
Track not present in AccurateRip database
Copy OK

Track 2

Filename C:\EAC\02. Escape Me (feat. C.C. Sheffield).wav

Pre-gap length 0:00:00.49

Peak level 98.8 %
Track quality 100.0 %
Test CRC E8CC5DCE
Copy CRC E8CC5DCE
Track not present in AccurateRip database
Copy OK

Track 3

Filename C:\EAC\03. You Are My Diamond (feat. Kianna).wav

Pre-gap length 0:00:00.77

Peak level 100.0 %
Track quality 100.0 %
Test CRC 5F64CF45
Copy CRC 5F64CF45
Track not present in AccurateRip database
Copy OK

Track 4

Filename C:\EAC\04. I Will Be Here (feat. Sneaky Sound System).wav

Pre-gap length 0:00:01.42

Peak level 97.6 %
Track quality 100.0 %
Test CRC 0CB59FA7
Copy CRC 0CB59FA7
Track not present in AccurateRip database
Copy OK

Track 5

Filename C:\EAC\05. I Am Strong (feat. Priscilla Ahn).wav

Pre-gap length 0:00:00.77

Peak level 100.0 %
Track quality 100.0 %
Test CRC 18539D3B
Copy CRC 18539D3B
Track not present in AccurateRip database
Copy OK

Track 6

Filename C:\EAC\06. Here On Earth (feat. Cary Brothers).wav

Pre-gap length 0:00:01.13

Peak level 100.0 %
Track quality 99.9 %
Test CRC 256A5B10
Copy CRC 256A5B10
Track not present in AccurateRip database
Copy OK

Track 7

Filename C:\EAC\07. Always Near.wav

Peak level 100.0 %
Track quality 100.0 %
Test CRC 436E1BCF
Copy CRC 436E1BCF
Track not present in AccurateRip database
Copy OK

Track 8

Filename C:\EAC\08. It's Not The Things You Say (feat. Kele Okereke).wav

Pre-gap length 0:00:00.56

Peak level 97.7 %
Track quality 99.9 %
Test CRC 09E5982D
Copy CRC 09E5982D
Track not present in AccurateRip database
Copy OK

Track 9

Filename C:\EAC\09. Fresh Fruit.wav

Pre-gap length 0:00:01.13

Peak level 100.0 %
Track quality 100.0 %
Test CRC 5B5D831E
Copy CRC 5B5D831E
Track not present in AccurateRip database
Copy OK

Track 10

Filename C:\EAC\10. Century (feat. Calvin Harris).wav

Pre-gap length 0:00:00.40

Peak level 100.0 %
Track quality 100.0 %
Test CRC 0101658C
Copy CRC 0101658C
Track not present in AccurateRip database
Copy OK

Track 11

Filename C:\EAC\11. Feel It In My Bones (feat. Tegan & Sara).wav

Pre-gap length 0:00:00.64

Peak level 100.0 %
Track quality 99.9 %
Test CRC 73EAB407
Copy CRC 73EAB407
Track not present in AccurateRip database
Copy OK

Track 12

Filename C:\EAC\12. Who Wants To Be Alone (feat. Nelly Furtado).wav

Pre-gap length 0:00:01.09

Peak level 97.7 %
Track quality 100.0 %
Test CRC 1B7D8E73
Copy CRC 1B7D8E73
Track not present in AccurateRip database
Copy OK

Track 13

Filename C:\EAC\13. L.A. Ride.wav

Pre-gap length 0:00:01.17

Peak level 100.0 %
Track quality 99.9 %
Test CRC 73BECE76
Copy CRC 73BECE76
Track not present in AccurateRip database
Copy OK

Track 14

Filename C:\EAC\14. Bend It Like You Don't Care.wav

Pre-gap length 0:00:00.20

Peak level 100.0 %
Track quality 99.9 %
Test CRC 621D2BA2
Copy CRC 621D2BA2
Track not present in AccurateRip database
Copy OK

Track 15

Filename C:\EAC\15. Knock You Out (feat. Emily Haines).wav

Pre-gap length 0:00:02.36

Peak level 100.0 %
Track quality 100.0 %
Test CRC E9FB0148
Copy CRC E9FB0148
Track not present in AccurateRip database
Copy OK

Track 16

Filename C:\EAC\16. Louder Than Boom.wav

Pre-gap length 0:00:01.50

Peak level 100.0 %
Track quality 99.9 %
Test CRC A3CE18BC
Copy CRC A3CE18BC
Track not present in AccurateRip database
Copy OK

Track 17

Filename C:\EAC\17. Surrounded By Light.wav

Pre-gap length 0:00:00.93

Peak level 100.0 %
Track quality 100.0 %
Test CRC 643B9EDD
Copy CRC 643B9EDD
Track not present in AccurateRip database
Copy OK

None of the tracks are present in the AccurateRip database

No errors occurred

End of status report

Этот торрент недоступен для скачивания без регистрации, однако доступен по публичной magnet-ссылке (источники с публичных трекеров). Перед использованием ссылки прочтите, пожалуйста Пользовательское соглашение, а также как можно дольше оставайтесь на раздаче! Для того, чтобы скачать сам торрент-файл (который видит больше источников), а также для того, чтобы поблагодарить релизера, вам необходимо зарегистрироваться. Если регистрироваться лень - вы можете также попробовать скачать релиз по нашим партнерским ссылкам ниже. Кроме того, зарегистрированным пользователям не показывается всплывающая реклама при скачивании.

[underverse.su].t6701.torrent
Трекер: Зарегистрирован   [ 20.10.2009 18:11 ]  

Статус: проверено (by ZondeR at 21.10.2009 06:41)
Поблагодарили: 2 человека
Тип торрента: публичный - доступные источники с открытых трекеров: 
Размер: 524 MB (занимает 0,12 DVDR, для записи нужно 1 болванка DVDR/RW)
 
 
Похожие темы
Форум Тема Автор Торрент Отв. Посл. сооб.
Зарубежный Hard, Progressive, Soft, Melodic, AOR, Folk, Classic Rock (Progressive Rock) Liquid Blue Thursdays - Redacted Essays From Nowhere (2017) [MP3, 320 kbps CBR] Darkferse
1 | 0

0 | 634

4

04.04.2017 15:21

Зарубежный Hard, Progressive, Soft, Melodic, AOR, Folk, Classic Rock (Progressive Rock) Family Free Rock - In Full Swing (2017) [MP3, 320 kbps CBR] Darkferse
1 | 1

0 | 469

2

05.06.2017 09:20

Зарубежный Hard, Progressive, Soft, Melodic, AOR, Folk, Classic Rock (Progressive, Art-Rock) VA - The Many Faces of Pink Floyd: A Journey Through The Inner World of Pink Floyd (2013) (3CD) [MP3, 320 kbps CBR] saw444
2 | 1

3 | 1603

24

29.12.2013 06:14

Зарубежный Hard, Progressive, Soft, Melodic, AOR, Folk, Classic Rock (Progressive Rock) Asia - Gravitas [Deluxe Edition] (2014) [MP3 (tracks), 320 kbps] Jimmy
0 | 0

0 | 1906

20

22.03.2014 17:23

Зарубежный Hard, Progressive, Soft, Melodic, AOR, Folk, Classic Rock (Progressive Rock) Akrasy - Tsunami: Love (2016) [MP3, 320 kbps CBR] Darkferse
1 | 0

0 | 782

2

11.12.2016 14:19

Зарубежный Hard, Progressive, Soft, Melodic, AOR, Folk, Classic Rock (Progressive Rock, Hard Rock) Chris Brockbank's Phantom MkV - Phantom (2017) [MP3, 320 kbps CBR] Darkferse
3 | 0

0 | 507

2

05.06.2017 09:17

Зарубежный Hard, Progressive, Soft, Melodic, AOR, Folk, Classic Rock (Progressive Rock) Elephant Plaza - Momentum (2016) [MP3, 320 kbps CBR] IronMan
0 | 0

0 | 931

3

26.06.2016 17:08

Зарубежный Hard, Progressive, Soft, Melodic, AOR, Folk, Classic Rock (Progressive Rock) The Watch - Seven (2017) [MP3, 320 kbps CBR] Darkferse
1 | 0

0 | 918

3

29.05.2017 18:50

Зарубежный Hard, Progressive, Soft, Melodic, AOR, Folk, Classic Rock (Progressive Rock, Stoner Rock) Brieg Guerveno - Valgori (2016) [MP3, 320 kbps CBR] Darkferse
1 | 0

0 | 719

1

09.01.2017 09:41

Зарубежный Hard, Progressive, Soft, Melodic, AOR, Folk, Classic Rock (Progressive Rock, Blues Rock) Quatermass - Quatermass (1990) [FLAC (Image+.Cue), Lossless] Бишеп
1 | 0

0 | 590

3

20.01.2017 16:39

valet81 Пол:Муж

16-Ноя-2009 13:33

Альбом отличный! Очень понравился. Качать не буду, уже скачал. :)

16-Июн-2011 08:09

Топик был перенесен из форума Trance, GoaTrance, PsyTrance (Lossless) в форум Архив


[cron robot]
 

Яндекс.Метрика powered by Sphinx


В Н И М А Н И Е
Сайт не распространяет и не хранит электронные версии произведений, а лишь бесплатно и без коммерческой выгоды (не требуя взамен платы,
SMS и т.д.) предоставляет доступ к создаваемому пользователями каталогу ссылок на торрент-файлы, которые содержат только списки хеш-сумм.
Убедительная просьба с жалобами обращаться напрямую к пользователю, разместившему торрент файл.

Вверх