Loading...
Error

Бильярдист / The Hustler (Роберт Россен) [1961 г., Драма, спорт, BDRip-AVC] MVO, AVO

Статистика раздачи
Размер:  3,03 GB   |    Зарегистрирован:  11 месяцев   |    Скачан:  1 раз
Сидов:  1  |  0 KB/s  ]   Личеров:  0  |  0 KB/s  ]

* - сиды/пиры с внешних источников

   
 
Автор Сообщение

mihis Пол:Муж

18-Дек-2016 12:48

Бильярдист / The Hustler
«Trapped by the underworld . . . they risked love and fortune in a desperate gamble!»
Год выпуска: 1961
Страна: США, Rossen Films, Twentieth Century Fox Film Corporation
Жанр: Драма, спорт
Продолжительность: 02:14:44
Перевод: Профессиональный (многоголосый, закадровый) Blu-ray CEE, 1 канал + Авторский одноголосый А. Медведев + Украинский, Оригинал
Субтитры: Русские, украинские, английские

Режиссер: Роберт Россен

В ролях: Пол Ньюман, Джеки Глисон, Пайпер Лори, Джордж К. Скотт, Майрон МакКормик, Мюррэй Хэмилтон, Майкл Константин, Стефан Гираш, Клиффорд А. Пеллоу, Джэйк ЛаМотта, Гордон Б. Кларк, Александр Роуз, Кэролин Коутс, Карл Йорк, Винсент Гардения, Уильям Адамс, Том Эхирн, Чарльз Андре, Дон Де Лео, Чарльз Диркоп, Уильям Дюэл, Джим Дюка, Брендан Фэй, Джек Хили, Хоук Хауэлл, Дон Колл, Чарльз МакДэниэл, Чарльз Москони, Уилли Москони, Сид Рэймонд, Арт Смит


Описание: Бильярдист Эдди Фелсон по прозвищу Фаст действовал просто: сначала он позволял противнику выигрывать, потом взвинчивал ставки и буквально раздевал соперника до нитки. В Нью-Йорке произошёл легендарный поединок: Фаст бросил вызов Толстяку Миннесоте…



Качество: BDRip-AVC
Формат: MKV
Видео кодек: H.264
Аудио кодек: AC3
Видео: AVC, 1024x436 (2.35:1), 23.976 fps, 1 484 Kbps (0.139 bit/pixel)
Аудио #1: AC3, 48.0 KHz, 6 ch, 448 Kbps, CBR MVO Blu-ray CEE
Аудио #2: AC3, 48.0 KHz, 2 ch, 192 Kbps, CBR MVO 1 канал
Аудио #3: AC3, 48.0 KHz, 2 ch, 192 Kbps, CBR AVO А. Медведев
Аудио #4: AC3, 48.0 KHz, 6 ch, 448 Kbps, CBR MVO Украинский
Аудио #5: AC3, 48.0 KHz, 6 ch, 448 Kbps, CBR Eng
Оскар, 1962 год
Победитель (2):
Лучшая работа оператора (ч/б фильмы)
Лучшая работа художника (ч/б фильмы)
Номинации (7):
Лучший фильм
Лучшая мужская роль (Пол Ньюман)
Лучшая женская роль (Пайпер Лори)
Лучшая мужская роль второго плана (Джордж К. Скотт)
Лучшая мужская роль второго плана (Джеки Глисон)
Лучший режиссер (Роберт Россен)
Лучший адаптированный сценарий


Золотой глобус, 1962 год
Номинации (3):
Лучшая мужская роль (драма) (Пол Ньюман)
Лучшая мужская роль второго плана (Джеки Глисон)
Лучшая мужская роль второго плана (Джордж К. Скотт)


Британская академия, 1962 год
Победитель (2):
Лучший фильм
Лучший иностранный актер (Пол Ньюман)
Номинации (1):
Лучшая иностранная актриса (Пайпер Лори)
Общее
Уникальный идентификатор : 186132224769147937527024258413952866448 (0x8C07C33527B19F04A920E71FEBF59890)
Полное имя : H:1FilmsHРелизыBiljardist.1961.x264.BDRip.AVC.MediaClub.mkv
Формат : Matroska
Версия формата : Version 4 / Version 2
Размер файла : 3,03 Гбайт
Продолжительность : 2 ч. 14 м.
Общий поток : 3215 Кбит/сек
Название фильма : -= MediaClub =- rip by Lefevr
Дата кодирования : UTC 2014-12-10 04:04:24
Программа кодирования : mkvmerge v6.1.0 ('Old Devil') built on Mar 4 2013 09:10:42
Библиотека кодирования : libebml v1.3.0 + libmatroska v1.4.0

Видео
Идентификатор : 1
Формат : AVC
Формат/Информация : Advanced Video Codec
Профиль формата : High@L4.1
Параметр CABAC формата : Да
Параметр ReFrames формата : 9 кадров
Идентификатор кодека : V_MPEG4/ISO/AVC
Продолжительность : 2 ч. 14 м.
Битрейт : 1484 Кбит/сек
Ширина : 1024 пикселя
Высота : 436 пикселей
Соотношение сторон : 2,35:1
Режим частоты кадров : Постоянный
Частота кадров : 23,976 кадра/сек
Цветовое пространство : YUV
Субдискретизация насыщенности : 4:2:0
Битовая глубина : 8 бит
Тип развёртки : Прогрессивная
Бит/(Пиксели*Кадры) : 0.139
Размер потока : 1,34 Гбайт (44%)
Заголовок : Biljardist.1961.x264.BDRip.AVC.MediaClub
Библиотека кодирования : x264 core 130 r2273 b3065e6
Настройки программы : cabac=1 / ref=9 / deblock=1:-2:-2 / analyse=0x3:0x133 / me=umh / subme=11 / psy=1 / psy_rd=1.00:0.20 / mixed_ref=1 / me_range=32 / chroma_me=1 / trellis=2 / 8x8dct=1 / cqm=0 / deadzone=21,11 / fast_pskip=0 / chroma_qp_offset=-3 / threads=6 / lookahead_threads=1 / sliced_threads=0 / nr=0 / decimate=0 / interlaced=0 / bluray_compat=0 / constrained_intra=0 / bframes=8 / b_pyramid=2 / b_adapt=2 / b_bias=0 / direct=3 / weightb=1 / open_gop=0 / weightp=2 / keyint=240 / keyint_min=23 / scenecut=40 / intra_refresh=0 / rc=2pass / mbtree=0 / bitrate=1484 / ratetol=1.0 / qcomp=0.60 / qpmin=0 / qpmax=69 / qpstep=4 / cplxblur=20.0 / qblur=0.5 / ip_ratio=1.40 / pb_ratio=1.30 / aq=1:1.00
Язык : English
Default : Да
Forced : Да

Аудио #1
Идентификатор : 2
Формат : AC-3
Формат/Информация : Audio Coding 3
Расширение режима : CM (complete main)
Параметр Endianness формата : Big
Идентификатор кодека : A_AC3
Продолжительность : 2 ч. 14 м.
Вид битрейта : Постоянный
Битрейт : 448 Кбит/сек
Каналы : 6 каналов
Расположение каналов : Front: L C R, Side: L R, LFE
Частота : 48,0 КГц
Битовая глубина : 16 бит
Метод сжатия : С потерями
Размер потока : 432 Мбайт (14%)
Заголовок : TRACK_01_MVO_RUS_Blu-ray CEE
Язык : Russian
Default : Да
Forced : Да

Аудио #2
Идентификатор : 3
Формат : AC-3
Формат/Информация : Audio Coding 3
Расширение режима : CM (complete main)
Параметр Endianness формата : Big
Идентификатор кодека : A_AC3
Продолжительность : 2 ч. 14 м.
Вид битрейта : Постоянный
Битрейт : 192 Кбит/сек
Каналы : 2 канала
Расположение каналов : Front: L R
Частота : 48,0 КГц
Битовая глубина : 16 бит
Метод сжатия : С потерями
Размер потока : 185 Мбайт (6%)
Заголовок : TRACK_02_MVO_RUS_1 канал
Язык : Russian
Default : Нет
Forced : Нет

Аудио #3
Идентификатор : 4
Формат : AC-3
Формат/Информация : Audio Coding 3
Расширение режима : CM (complete main)
Параметр Endianness формата : Big
Идентификатор кодека : A_AC3
Продолжительность : 2 ч. 14 м.
Вид битрейта : Постоянный
Битрейт : 192 Кбит/сек
Каналы : 2 канала
Расположение каналов : Front: L R
Частота : 48,0 КГц
Битовая глубина : 16 бит
Метод сжатия : С потерями
Размер потока : 185 Мбайт (6%)
Заголовок : TRACK_03_AVO_RUS_Медведев
Язык : Russian
Default : Нет
Forced : Нет

Аудио #4
Идентификатор : 5
Формат : AC-3
Формат/Информация : Audio Coding 3
Расширение режима : CM (complete main)
Параметр Endianness формата : Big
Идентификатор кодека : A_AC3
Продолжительность : 2 ч. 14 м.
Вид битрейта : Постоянный
Битрейт : 448 Кбит/сек
Каналы : 6 каналов
Расположение каналов : Front: L C R, Side: L R, LFE
Частота : 48,0 КГц
Битовая глубина : 16 бит
Метод сжатия : С потерями
Размер потока : 432 Мбайт (14%)
Заголовок : TRACK_04_MVO_UKR_Цікава ідея
Язык : Ukrainian
Default : Нет
Forced : Нет

Аудио #5
Идентификатор : 6
Формат : AC-3
Формат/Информация : Audio Coding 3
Расширение режима : CM (complete main)
Параметр Endianness формата : Big
Идентификатор кодека : A_AC3
Продолжительность : 2 ч. 14 м.
Вид битрейта : Постоянный
Битрейт : 448 Кбит/сек
Каналы : 6 каналов
Расположение каналов : Front: L C R, Side: L R, LFE
Частота : 48,0 КГц
Битовая глубина : 16 бит
Метод сжатия : С потерями
Размер потока : 432 Мбайт (14%)
Заголовок : TRACK_05_ORIGINAL_ENG
Язык : English
Default : Нет
Forced : Нет

Текст #1
Идентификатор : 7
Формат : UTF-8
Идентификатор кодека : S_TEXT/UTF8
Идентификатор кодека/Информация : UTF-8 Plain Text
Заголовок : TEXT_01_SUB_RUS.srt
Язык : Russian
Default : Нет
Forced : Нет

Текст #2
Идентификатор : 8
Формат : UTF-8
Идентификатор кодека : S_TEXT/UTF8
Идентификатор кодека/Информация : UTF-8 Plain Text
Заголовок : TEXT_02_SUB_UKR.srt
Язык : Ukrainian
Default : Нет
Forced : Нет

Текст #3
Идентификатор : 9
Формат : UTF-8
Идентификатор кодека : S_TEXT/UTF8
Идентификатор кодека/Информация : UTF-8 Plain Text
Заголовок : TEXT_03_SUB_ENG.srt
Язык : English
Default : Нет
Forced : Нет

Меню
00:00:00.000 : en:00:00:00.000
00:05:56.856 : en:00:05:56.856
00:07:32.869 : en:00:07:32.869
00:12:54.440 : en:00:12:54.440
00:16:30.323 : en:00:16:30.323
00:23:29.950 : en:00:23:29.950
00:28:52.731 : en:00:28:52.731
00:33:22.709 : en:00:33:22.709
00:36:15.340 : en:00:36:15.340
00:42:03.813 : en:00:42:03.813
00:48:39.333 : en:00:48:39.333
00:51:28.502 : en:00:51:28.502
00:58:35.053 : en:00:58:35.053
01:05:18.331 : en:01:05:18.331
01:08:18.553 : en:01:08:18.553
01:14:51.654 : en:01:14:51.654
01:19:54.373 : en:01:19:54.373
01:23:42.601 : en:01:23:42.601
01:27:55.479 : en:01:27:55.479
01:29:29.239 : en:01:29:29.239
01:36:05.218 : en:01:36:05.218
01:39:34.594 : en:01:39:34.594
01:41:03.099 : en:01:41:03.099
01:43:11.477 : en:01:43:11.477
01:45:59.186 : en:01:45:59.186
01:49:20.763 : en:01:49:20.763
01:51:52.331 : en:01:51:52.331
01:57:25.538 : en:01:57:25.538
02:00:18.628 : en:02:00:18.628
02:03:07.922 : en:02:03:07.922
02:08:58.147 : en:02:08:58.147
02:13:52.441 : en:02:13:52.441

Этот торрент недоступен для скачивания без регистрации, однако доступен по публичной magnet-ссылке (источники с публичных трекеров). Перед использованием ссылки прочтите, пожалуйста Пользовательское соглашение, а также как можно дольше оставайтесь на раздаче! Для того, чтобы скачать сам торрент-файл (который видит больше источников), а также для того, чтобы поблагодарить релизера, вам необходимо зарегистрироваться. Если регистрироваться лень - вы можете также попробовать скачать релиз по нашим партнерским ссылкам ниже.

[underverse.su].t75610.torrent
Трекер: Зарегистрирован   [ 18.12.2016 12:48 ]  

Статус: проверено (by Паукан at 23.12.2016 17:18)
Поблагодарили: пока никто не поблагодарил...
Тип торрента: публичный - доступные источники с открытых трекеров: 
Размер: 3,03 GB (занимает 0,69 DVDR, для записи нужно 1 болванка DVDR/RW)
 
 

Яндекс.Метрика powered by Sphinx


В Н И М А Н И Е
Сайт не распространяет и не хранит электронные версии произведений, а лишь бесплатно и без коммерческой выгоды (не требуя взамен платы,
SMS и т.д.) предоставляет доступ к создаваемому пользователями каталогу ссылок на торрент-файлы, которые содержат только списки хеш-сумм.
Убедительная просьба с жалобами обращаться напрямую к пользователю, разместившему торрент файл.

Вверх