Loading...
Error

Не говори мне «Прощай!» (Андрей Хрулёв) [2016 г., детектив, криминал, мелодрама, HDTVRip]

Статистика раздачи
Размер:  1,37 GB   |    Зарегистрирован:  9 месяцев   |    Скачан:  1 раз

Полного источника не было: 7 месяцев

Сидов:  0  |  0 KB/s  ]   Личеров:  0  |  0 KB/s  ]

* - сиды/пиры с внешних источников

   
 
Автор Сообщение

makkol Пол:Муж

18-Дек-2016 11:36

Не говори мне «Прощай!»


Год выпуска: 2016
Жанр: детектив, криминал, мелодрама
Производство: Россия [ООО Тесей Продакшн]
Режиссер: Андрей Хрулёв
В ролях: Елизавета Шукова, Даниил Лебедев (II), Игорь Денисов, Татьяна Бовкалова, Александр Цуркан, Алиса Петрова, Дарья Пармененкова, Марина Черняева, Александр Бранкевич, Илья Финевич, Игорь Фильченков, Светлана Никифорова, Игорь Сидорчик, Ирина Кабанов
Сюжет фильма:
Таня (Елизавета Шукова) и Андрей (Данила Лебедев) любят друг друга, но их семьи против брака детей. Дедушка Тани, который ее вырастил, – лесник (Игорь Цуркан). Отец Андрея, Степан (Игорь Денисов), - браконьер, да еще и облеченный властью. Вечная история враждующих семей в современной деревне получает неожиданное продолжение. Степана находят убитым, и все улики указывают на Таню. Андрей находит ее на месте преступления с ружьем около трупа своего отца. Таня утверждает, что она невиновна. Андрею предстоит сделать сложный выбор: верить или верить Тане. Для того, чтобы быть с любимой, Андрей должен найти настоящего убийцу…

  • Российская премьера: 16 декабря 2016


Качество видео: HDTVRip

Продолжительность: 01:27:33
Формат: AVI
Видео: XviD, 720x400 (16:9), 25.000 fps, 2034 kbps
Аудио: русский, оригинал, AC3 2.0, 48 kHz, 192 kbps

Код:

Format : AVI
Format/Info : Audio Video Interleave
File size : 1.37 GiB
Duration : 1h 27mn
Overall bit rate : 2 235 Kbps
Writing application : VirtualDubMod 1.5.10.3 | www.virtualdub-fr.org || (build 2550/release)
Writing library : VirtualDubMod build 2550/release

Video #0
ID : 0
Format : MPEG-4 Visual
Format profile : Advanced Simple@L5
Format settings, BVOP : 1
Format settings, QPel : No
Format settings, GMC : No warppoints
Format settings, Matrix : Custom
Codec ID : XVID
Codec ID/Hint : XviD
Duration : 1h 27mn
Bit rate : 2 034 Kbps
Width : 720 pixels
Height : 400 pixels
Display aspect ratio : 16:9
Frame rate : 25.000 fps
Color space : YUV
Chroma subsampling : 4:2:0
Bit depth : 8 bits
Scan type : Progressive
Compression mode : Lossy
Bits/(Pixel*Frame) : 0.282
Stream size : 1.24 GiB (91%)
Writing library : XviD 73

Audio #1
ID : 1
Format : AC-3
Format/Info : Audio Coding 3
Mode extension : CM (complete main)
Format settings, Endianness : Big
Codec ID : 2000
Duration : 1h 27mn
Bit rate mode : Constant
Bit rate : 192 Kbps
Channel(s) : 2 channels
Channel positions : Front: L R
Sampling rate : 48.0 KHz
Bit depth : 16 bits
Compression mode : Lossy
Stream size : 120 MiB (9%)
Alignment : Split accross interleaves
Interleave, duration : 40 ms (1.00 video frame)
Interleave, preload duration : 500 ms
Релиз от:

picpicpicpicpic
Для увеличения картинки щелкните мышкой по превью

Этот торрент недоступен для скачивания без регистрации, однако доступен по публичной magnet-ссылке (источники с публичных трекеров). Перед использованием ссылки прочтите, пожалуйста Пользовательское соглашение, а также как можно дольше оставайтесь на раздаче! Для того, чтобы скачать сам торрент-файл (который видит больше источников), а также для того, чтобы поблагодарить релизера, вам необходимо зарегистрироваться. Если регистрироваться лень - вы можете также попробовать скачать релиз по нашим партнерским ссылкам ниже.

[underverse.su].t75587.torrent
Трекер: Зарегистрирован   [ 18.12.2016 11:36 ]  

Статус: проверено (by makkol at 25.12.2016 10:48)
Поблагодарили: пока никто не поблагодарил...
Тип торрента: публичный - доступные источники с открытых трекеров: 
Размер: 1,37 GB (занимает 0,31 DVDR, для записи нужно 1 болванка DVDR/RW)
 
 
Похожие темы
Форум Тема Автор Торрент Отв. Посл. сооб.
Наше кино [DVDRip, Low-Res HDRip, и т.д.] Не говори мне «Прощай!» (Андрей Хрулёв) [2016 г., детектив, криминал, мелодрама, HDTVRip-AVC] makkol
23 | 0

0 | 180

4

18.12.2016 11:43

* Архив Не говори никому (Гийом Кане) [2006 г., триллер, драма, криминал, детектив,DVDRip ] seriiko

6 | 836

29.08.2010 23:52


Яндекс.Метрика powered by Sphinx


В Н И М А Н И Е
Сайт не распространяет и не хранит электронные версии произведений, а лишь бесплатно и без коммерческой выгоды (не требуя взамен платы,
SMS и т.д.) предоставляет доступ к создаваемому пользователями каталогу ссылок на торрент-файлы, которые содержат только списки хеш-сумм.
Убедительная просьба с жалобами обращаться напрямую к пользователю, разместившему торрент файл.

Вверх