Loading...
Error

Затмение (Артем Аксененко) [2016 г., фэнтези, приключения, HDRip]

Статистика раздачи
Размер:  1,37 GB   |    Зарегистрирован:  9 месяцев   |    Скачан:  13 раз
Сидов:  1  |  0 KB/s  ]   Личеров:  0  |  0 KB/s  ]

* - сиды/пиры с внешних источников

   
 
Автор Сообщение

makkol Пол:Муж

16-Дек-2016 13:37

Затмение
«Любовь сильнее любых заклятий!»


Год выпуска: 2016
Жанр: фэнтези, приключения
Производство: Россия [KINODANZ]
Режиссер: Артем Аксененко
В ролях: Александр Петров (II), Диана Пожарская, Катя Кабак, Сергей Бурунов, Семен Лопатин, Кирилл Козаков, Денис Ясик, Юлия Сулес, Алексей Воронин, Светлана Головина, Вероника Вернадская, Андрей Перунов, Ирина Цывина, Андрей Стоянов
Сюжет фильма:
Обаятельный авантюрист Алекс в силу стечения обстоятельств заменяет на съемках популярного телешоу про экстрасенсов выбывшего участника — Шамана. И повторяет в прямом эфире предсказание, которое подслушал за кулисами, — что одна из зрительниц обречена на вечное одиночество, и от нее отвернутся близкие и родственники. Алекс не подозревает, что происходящее с ним — не случайно: он оказался замешан в давнее противостояние двух могущественных магов. Экстрасенсы втянули парня в опасную мистическую игру без правил. В жизни Тани — девушки, которую Алекс «проклял» на шоу — начинают происходить мистические события. Алекс пытается переубедить её, что никакого «проклятья» нет, и по ходу дела влюбляется в неё. Но предсказание получает все больше подтверждений и начинает угрожать жизни девушки. Чтобы сохранить себя и свою любовь, герой должен найти способ выбраться из мистического переплёта…

Качество видео: HDRip

Продолжительность: 01:20:00
Формат: AVI
Видео: XviD, 720x400 (16:9), 25.000 fps, 1989 kbps
Аудио: русский, оригинал (лицензия), AC3 5.1, 48 kHz, 448 kbps

Код:

Формат                                   : AVI
Формат/Информация                        : Audio Video Interleave
Размер файла                             : 1,37 Гбайт
Продолжительность                        : 1 ч. 20 м.
Общий поток                              : 2447 Кбит/сек
Программа кодирования                    : VirtualDubMod 1.5.10.2 (build 2540/release)
Библиотека кодирования                   : VirtualDubMod build 2540/release

Видео
Идентификатор                            : 0
Формат                                   : MPEG-4 Visual
Профиль формата                          : Advanced Simple@L5
Параметр BVOP формата                    : 2
Параметр QPel формата                    : Нет
Параметр GMC формата                     : Без точки перехода
Параметр матрицы формата                 : Default (MPEG)
Идентификатор кодека                     : XVID
Идентификатор кодека/Подсказка           : XviD
Продолжительность                        : 1 ч. 20 м.
Битрейт                                  : 1989 Кбит/сек
Ширина                                   : 720 пикселей
Высота                                   : 400 пикселей
Соотношение сторон                       : 16:9
Частота кадров                           : 25,000 кадров/сек
Цветовое пространство                    : YUV
Субдискретизация насыщенности            : 4:2:0
Битовая глубина                          : 8 бит
Тип развёртки                            : Прогрессивная
Метод сжатия                             : С потерями
Бит/(Пиксели*Кадры)                      : 0.276
Размер потока                            : 1,11 Гбайт (81%)
Библиотека кодирования                   : XviD 1.2.1 (UTC 2008-12-04)

Аудио
Идентификатор                            : 1
Формат                                   : AC-3
Формат/Информация                        : Audio Coding 3
Расширение режима                        : CM (complete main)
Параметр Endianness формата              : Big
Идентификатор кодека                     : 2000
Продолжительность                        : 1 ч. 19 м.
Вид битрейта                             : Постоянный
Битрейт                                  : 448 Кбит/сек
Каналы                                   : 6 каналов
Расположение каналов                     : Front: L C R, Side: L R, LFE
Частота                                  : 48,0 КГц
Частота кадров                           : 31,250 кадров/сек (1536 spf)
Метод сжатия                             : С потерями
Размер потока                            : 256 Мбайт (18%)
Выравнивание                             : Разделение по промежуткам
Продолжительность промежутка             : 40  мс. (1,00 видеокадр)
Время предзагрузки промежутка            : 500  мс.
picpicpicpicpic
Для увеличения картинки щелкните мышкой по превью

Этот торрент недоступен для скачивания без регистрации, однако доступен по публичной magnet-ссылке (источники с публичных трекеров). Перед использованием ссылки прочтите, пожалуйста Пользовательское соглашение, а также как можно дольше оставайтесь на раздаче! Для того, чтобы скачать сам торрент-файл (который видит больше источников), а также для того, чтобы поблагодарить релизера, вам необходимо зарегистрироваться. Если регистрироваться лень - вы можете также попробовать скачать релиз по нашим партнерским ссылкам ниже.

[underverse.su].t75393.torrent
Трекер: Зарегистрирован   [ 16.12.2016 13:37 ]  

Статус: © запрещена на территории РФ (by Паукан at 14.06.2017 07:58)
Поблагодарили: пока никто не поблагодарил...
Тип торрента: публичный - доступные источники с открытых трекеров: 
Размер: 1,37 GB (занимает 0,31 DVDR, для записи нужно 1 болванка DVDR/RW)
 
 
Похожие темы
Форум Тема Автор Торрент Отв. Посл. сооб.
© Наше кино [DVDRip, Low-Res HDRip, и т.д.] Затмение (Артем Аксененко) [2016 г., фэнтези, приключения, BDRip-AVC] 90ytr90
14 | 0
1,46 GB

0 | 19171

17

17.12.2016 10:59

© Наше кино [DVDRip, Low-Res HDRip, и т.д.] Затмение (Артем Аксененко) [2016 г., фэнтези, приключения, HDRip] makkol
0 | 0
699 MB

0 | 286

9

16.12.2016 14:02

© Наше кино [HDDVDRip / BDRip / WEB-DL / HDTV 1080/720р] Затмение (Артем Аксененко) [2016 г., фэнтези, приключения, BDRip 1080p] makkol
1 | 0
7,53 GB

0 | 303

7

16.12.2016 13:54

© Наше кино [HDDVDRip / BDRip / WEB-DL / HDTV 1080/720р] Затмение (Артем Аксененко) [2016 г., фэнтези, приключения, BDRip 720p] makkol
1 | 0
3,82 GB

0 | 298

8

16.12.2016 13:47


Яндекс.Метрика powered by Sphinx


В Н И М А Н И Е
Сайт не распространяет и не хранит электронные версии произведений, а лишь бесплатно и без коммерческой выгоды (не требуя взамен платы,
SMS и т.д.) предоставляет доступ к создаваемому пользователями каталогу ссылок на торрент-файлы, которые содержат только списки хеш-сумм.
Убедительная просьба с жалобами обращаться напрямую к пользователю, разместившему торрент файл.

Вверх