Loading...
Error

(Industrial Metal, Symphonic Metal) Pain - Coming Home (Limited Edition 2CD) (2016) [FLAC (Image+.CUE), lossless]

Статистика раздачи
Размер:  642 MB   |    Зарегистрирован:  1 год 5 месяцев   |    Скачан:  6 раз

Полного источника не было: 1 месяц 19 дней

Сидов:  0  |  0 KB/s  ]   Личеров:  0  |  0 KB/s  ]

* - сиды/пиры с внешних источников

   
 
Автор Сообщение

Darkferse Пол:Жен

11-Дек-2016 10:28

Pain - Coming Home (Limited Edition)

Жанр: Industrial Metal, Symphonic Metal
Страна: Sweden
Год выпуска: 2016
Источник: CD
Производитель: Nuclear Blast (NB3212-0)
Аудиокодек: FLAC
Тип рипа: Image+.CUE
Битрейт: lossless
Продолжительность: 01:26:37 (CD1: 00:41:30, CD2: 00:45:08)

Треклист:

CD1
01. Designed To Piss You Off (03:55)
02. Call Me (04:14)
03. A Wannabe (04:16)
04. Pain In The Ass (04:07)
05. Black Knight Satellite (03:42)
06. Coming Home (04:41)
07. Absinthe-Phoenix Rising (03:41)
08. Final Crusade (03:55)
09. Natural Born Idiot (04:17)
10. Starseed (04:45)

CD2 - Live In Vienna
01. Same Old Song (04:05)
02. Zombie Slam (03:39)
03. Suicide Machine (04:31)
04. I'm Going In (03:26)
05. End Of The Line (04:55)
06. It's Only Them (05:04)
07. The Great Pretender (05:00)
08. Dirty Woman (04:39)
09. Monkey Business (04:32)
10. Shut Your Mouth (05:22)
Exact Audio Copy V1.1 from 23. June 2015

EAC extraction logfile from 27. September 2016, 19:43

Pain / Coming Home CD1 (NB3212-0)

Used drive : PIONEER BD-RW BDR-209D Adapter: 0 ID: 5

Read mode : Secure
Utilize accurate stream : Yes
Defeat audio cache : Yes
Make use of C2 pointers : No

Read offset correction : 667
Overread into Lead-In and Lead-Out : No
Fill up missing offset samples with silence : Yes
Delete leading and trailing silent blocks : No
Null samples used in CRC calculations : Yes
Used interface : Installed external ASPI interface

Used output format : User Defined Encoder
Selected bitrate : 768 kBit/s
Quality : High
Add ID3 tag : No
Command line compressor : C:\Program Files (x86)\Exact Audio Copy\FLAC\FLAC.EXE
Additional command line options : -6 -V -T "ARTIST=%artist%" -T "TITLE=%title%" -T "ALBUM=%albumtitle%" -T "DATE=%year%" -T "TRACKNUMBER=%tracknr%" -T "GENRE=%genre%" -T "COMMENT=%comment%" -T "BAND=%albuminterpret%" -T "ALBUMARTIST=%albuminterpret%" -T "COMPOSER=%composer%" %haslyrics%--tag-from-file=LYRICS="%lyricsfile%"%haslyrics% -T "DISCNUMBER=%cdnumber%" -T "TOTALDISCS=%totalcds%" -T "TOTALTRACKS=%numtracks%" %hascover%--picture="%coverfile%"%hascover% %source% -o %dest%

TOC of the extracted CD

Track | Start | Length | Start sector | End sector
---------------------------------------------------------
1 | 0:00.00 | 3:54.30 | 0 | 17579
2 | 3:54.30 | 4:13.18 | 17580 | 36572
3 | 8:07.48 | 4:15.37 | 36573 | 55734
4 | 12:23.10 | 4:06.30 | 55735 | 74214
5 | 16:29.40 | 3:41.51 | 74215 | 90840
6 | 20:11.16 | 4:40.59 | 90841 | 111899
7 | 24:52.00 | 3:40.54 | 111900 | 128453
8 | 28:32.54 | 3:54.62 | 128454 | 146065
9 | 32:27.41 | 4:16.57 | 146066 | 165322
10 | 36:44.23 | 4:44.60 | 165323 | 186682

Range status and errors

Selected range

Filename E:\MUSIC\Pain - Coming Home CD1 (NB3212-0).wav

Peak level 100.0 %
Extraction speed 7.1 X
Range quality 100.0 %
Test CRC 7692BE2C
Copy CRC 7692BE2C
Copy OK

No errors occurred

AccurateRip summary

Track 1 not present in database
Track 2 not present in database
Track 3 not present in database
Track 4 not present in database
Track 5 not present in database
Track 6 not present in database
Track 7 not present in database
Track 8 not present in database
Track 9 not present in database
Track 10 not present in database

None of the tracks are present in the AccurateRip database

End of status report

==== Log checksum A421C303BEA06AC3E21D9873CF2442FDBE7185D50C6C9054066135B05DDB1308 ====
Exact Audio Copy V1.1 from 23. June 2015

EAC extraction logfile from 27. September 2016, 19:57

Pain / Coming Home (Live In Vienna) CD2

Used drive : PIONEER BD-RW BDR-209D Adapter: 0 ID: 5

Read mode : Secure
Utilize accurate stream : Yes
Defeat audio cache : Yes
Make use of C2 pointers : No

Read offset correction : 667
Overread into Lead-In and Lead-Out : No
Fill up missing offset samples with silence : Yes
Delete leading and trailing silent blocks : No
Null samples used in CRC calculations : Yes
Used interface : Installed external ASPI interface

Used output format : User Defined Encoder
Selected bitrate : 768 kBit/s
Quality : High
Add ID3 tag : No
Command line compressor : C:\Program Files (x86)\Exact Audio Copy\FLAC\FLAC.EXE
Additional command line options : -6 -V -T "ARTIST=%artist%" -T "TITLE=%title%" -T "ALBUM=%albumtitle%" -T "DATE=%year%" -T "TRACKNUMBER=%tracknr%" -T "GENRE=%genre%" -T "COMMENT=%comment%" -T "BAND=%albuminterpret%" -T "ALBUMARTIST=%albuminterpret%" -T "COMPOSER=%composer%" %haslyrics%--tag-from-file=LYRICS="%lyricsfile%"%haslyrics% -T "DISCNUMBER=%cdnumber%" -T "TOTALDISCS=%totalcds%" -T "TOTALTRACKS=%numtracks%" %hascover%--picture="%coverfile%"%hascover% %source% -o %dest%

TOC of the extracted CD

Track | Start | Length | Start sector | End sector
---------------------------------------------------------
1 | 0:00.00 | 4:04.18 | 0 | 18317
2 | 4:04.18 | 3:38.53 | 18318 | 34720
3 | 7:42.71 | 4:30.51 | 34721 | 55021
4 | 12:13.47 | 3:25.11 | 55022 | 70407
5 | 15:38.58 | 4:54.14 | 70408 | 92471
6 | 20:32.72 | 5:03.41 | 92472 | 115237
7 | 25:36.38 | 4:59.41 | 115238 | 137703
8 | 30:36.04 | 4:38.66 | 137704 | 158619
9 | 35:14.70 | 4:31.04 | 158620 | 178948
10 | 39:45.74 | 5:21.04 | 178949 | 203027

Range status and errors

Selected range

Filename E:\MUSIC\Pain - Coming Home (Live In Vienna) CD2.wav

Peak level 100.0 %
Extraction speed 7.2 X
Range quality 100.0 %
Test CRC 6873C8F1
Copy CRC 6873C8F1
Copy OK

No errors occurred

AccurateRip summary

Track 1 not present in database
Track 2 not present in database
Track 3 not present in database
Track 4 not present in database
Track 5 not present in database
Track 6 not present in database
Track 7 not present in database
Track 8 not present in database
Track 9 not present in database
Track 10 not present in database

None of the tracks are present in the AccurateRip database

End of status report

==== Log checksum 09A93D03CF1C8C67D0DA49B3749A83D6E4534FF1BE8ED2D24EA15C9168B161E0 ====
REM GENRE "Alternative Metal"
REM DATE 2016
REM DISCID 8C09B90A
REM COMMENT "ExactAudioCopy v1.1"
PERFORMER "Pain"
TITLE "Coming Home CD1 (NB3212-0)"
FILE "Pain - Coming Home CD1 (NB3212-0).flac" WAVE
TRACK 01 AUDIO
TITLE "Designed To Piss You Off"
PERFORMER "Pain"
INDEX 01 00:00:00
TRACK 02 AUDIO
TITLE "Call Me"
PERFORMER "Pain"
INDEX 01 03:54:30
TRACK 03 AUDIO
TITLE "A Wannabe"
PERFORMER "Pain"
INDEX 01 08:07:48
TRACK 04 AUDIO
TITLE "Pain In The Ass"
PERFORMER "Pain"
INDEX 01 12:23:10
TRACK 05 AUDIO
TITLE "Black Knight Satellite"
PERFORMER "Pain"
INDEX 01 16:29:40
TRACK 06 AUDIO
TITLE "Coming Home"
PERFORMER "Pain"
INDEX 01 20:11:16
TRACK 07 AUDIO
TITLE "Absinthe-Phoenix Rising"
PERFORMER "Pain"
INDEX 01 24:52:00
TRACK 08 AUDIO
TITLE "Final Crusade"
PERFORMER "Pain"
INDEX 01 28:32:54
TRACK 09 AUDIO
TITLE "Natural Born Idiot"
PERFORMER "Pain"
INDEX 01 32:27:41
TRACK 10 AUDIO
TITLE "Starseed"
PERFORMER "Pain"
INDEX 01 36:44:23
REM GENRE Metal
REM DATE 2016
REM DISCID 850A930A
REM COMMENT "ExactAudioCopy v1.1"
PERFORMER "Pain"
TITLE "Coming Home (Live In Vienna) CD2"
FILE "Pain - Coming Home (Live In Vienna) CD2.flac" WAVE
TRACK 01 AUDIO
TITLE "Same Old Song"
PERFORMER "Pain"
INDEX 01 00:00:00
TRACK 02 AUDIO
TITLE "Zombie Slam"
PERFORMER "Pain"
INDEX 01 04:04:18
TRACK 03 AUDIO
TITLE "Suicide Machine"
PERFORMER "Pain"
INDEX 01 07:42:71
TRACK 04 AUDIO
TITLE "I'm Going In"
PERFORMER "Pain"
INDEX 01 12:13:47
TRACK 05 AUDIO
TITLE "End Of The Line"
PERFORMER "Pain"
INDEX 01 15:38:58
TRACK 06 AUDIO
TITLE "It's Only Them"
PERFORMER "Pain"
INDEX 01 20:32:72
TRACK 07 AUDIO
TITLE "The Great Pretender"
PERFORMER "Pain"
INDEX 01 25:36:38
TRACK 08 AUDIO
TITLE "Dirty Woman"
PERFORMER "Pain"
INDEX 01 30:36:04
TRACK 09 AUDIO
TITLE "Monkey Business"
PERFORMER "Pain"
INDEX 01 35:14:70
TRACK 10 AUDIO
TITLE "Shut Your Mouth"
PERFORMER "Pain"
INDEX 01 39:45:74

Этот торрент недоступен для скачивания без регистрации, однако доступен по публичной magnet-ссылке (источники с публичных трекеров). Перед использованием ссылки прочтите, пожалуйста Пользовательское соглашение, а также как можно дольше оставайтесь на раздаче! Для того, чтобы скачать сам торрент-файл (который видит больше источников), а также для того, чтобы поблагодарить релизера, вам необходимо зарегистрироваться. Если регистрироваться лень - вы можете также попробовать скачать релиз по нашим партнерским ссылкам ниже. Кроме того, зарегистрированным пользователям не показывается всплывающая реклама при скачивании.

[underverse.su].t75160.torrent
Трекер: Зарегистрирован   [ 11.12.2016 10:28 ]  

Статус: проверено (by Бишеп at 11.12.2016 15:39)
Поблагодарили: 2 человека
Тип торрента: публичный - доступные источники с открытых трекеров: 
Размер: 642 MB (занимает 0,14 DVDR, для записи нужно 1 болванка DVDR/RW)
 
 
Похожие темы
Форум Тема Автор Торрент Отв. Посл. сооб.
Зарубежный Hard, Progressive, Soft, Melodic, AOR, Folk, Classic Rock (Industrial Rock) Devil-M - Hollow Earth (2017) [MP3, 320 kbps] ANDRAKO
7 | 1

0 | 595

3

29.01.2017 10:47

Зарубежный Black, Death, Heavy, Thrash, Power, Folk, Gothic Metal (Industrial, Metall) Rammstein - Greatest Hits (2008) [MP3, 320 kbps] M-i-i-i-ke
18 | 2

1 | 2766

24

20.05.2013 14:28

Зарубежный Black, Death, Heavy, Thrash, Power, Folk, Gothic Metal (Industrial Metal / Dance Metal) Rammstein - Mein Land (2011) [MP3, VBR ~260 kbps] Jimmy
0 | 0

0 | 1250

7

12.11.2011 05:55

Зарубежный Black, Death, Heavy, Thrash, Power, Folk, Gothic Metal (Industrial Metal) Deathstars - Discography (2003-2010) [MP3, 320 kbps] Jimmy
2 | 0

0 | 1492

7

22.02.2012 11:59

Зарубежный Black, Death, Heavy, Thrash, Power, Folk, Gothic Metal (Industrial Gothic Metal) Omega Lithium - Дискография (2007 - 2011) [MP3, 192, 320 kbps] Jimmy
1 | 1

2 | 4129

10

12.03.2012 18:15

Зарубежный Black, Death, Heavy, Thrash, Power, Folk, Gothic Metal (Industrial Metal) Rammstein - Mein Herz Brennt (2012) [MP3, 320 kbps CBR] Jimmy
5 | 2

0 | 384

12

05.04.2017 04:45

Зарубежный Black, Death, Heavy, Thrash, Power, Folk, Gothic Metal (Industrial Metal / Dubstep / Male & Female vocals) Rave The Reqviem - Reqviem V1.0 (EP) (2013) [MP3, 320 kbps CBR] Jimmy
6 | 5

0 | 1577

10

22.02.2013 07:49

Зарубежный Black, Death, Heavy, Thrash, Power, Folk, Gothic Metal (Industrial/Gothic Metal) Artifact - Desolation (2013) [MP3, 320 kbps] Jimmy
1 | 0

0 | 764

7

02.01.2014 07:02

Зарубежный Black, Death, Heavy, Thrash, Power, Folk, Gothic Metal (Industrial Metal) 3teeth - Shutdown.exe (2017) [MP3, 320 kbps CBR] Darkferse
13 | 0

0 | 567

1

22.05.2017 16:32

Зарубежный Black, Death, Heavy, Thrash, Power, Folk, Gothic Metal (Industrial Metal, EBM) Combichrist - This Is Where Death Begins (2016) [MP3, 320 kbps] ANDRAKO
23 | 0

0 | 804

6

30.12.2016 12:33



Последний раз редактировалось: Darkferse (12.12.2016 23:48), всего редактировалось 1 раз

Бишеп Пол:Муж

11-Дек-2016 15:43

Darkferse
В шапке темы лишний пробел!
(Industrial Metal, Symphonic Metal ) Pain - Coming Home (Limited Edition 2CD) (2016) [FLAC (Image+.CUE), lossless]
(Industrial Metal, Symphonic Metal) Pain - Coming Home (Limited Edition 2CD) (2016) [FLAC (Image+.CUE), lossless]
после жанров, будте внимательней!
Продвинутый релизёр всегда укажет в визарде время звучания каждого CD
CD1 (00:41:29)
36:44.23+4:44.60=00:41:29

Яндекс.Метрика powered by Sphinx


В Н И М А Н И Е
Сайт не распространяет и не хранит электронные версии произведений, а лишь бесплатно и без коммерческой выгоды (не требуя взамен платы,
SMS и т.д.) предоставляет доступ к создаваемому пользователями каталогу ссылок на торрент-файлы, которые содержат только списки хеш-сумм.
Убедительная просьба с жалобами обращаться напрямую к пользователю, разместившему торрент файл.

Вверх