Loading...
Error

Ледокол (Николай Хомерики) [2016 г., драма, BDRip-AVC]

Статистика раздачи
Размер:  2,07 GB   |    Зарегистрирован:  9 месяцев   |    Скачан:  17 раз

Полного источника не было: 4 дня

Сидов:  0  |  0 KB/s  ]   Личеров:  0  |  0 KB/s  ]

* - сиды/пиры с внешних источников

   
 
Автор Сообщение

makkol Пол:Муж

09-Дек-2016 15:11

Ледокол


Год выпуска: 2016
Жанр: драма
Производство: Россия [Профит]
Режиссер: Николай Хомерики
В ролях: Пётр Фёдоров, Сергей Пускепалис, Анна Михалкова, Ольга Филимонова, Александр Яценко, Александр Паль, Виталий Хаев, Алексей Барабаш, Дмитрий Муляр, Артур Чиргадзе
Сюжет фильма:
Основано на реальных событиях. 1985 год. Навстречу ледоколу «Михаил Громов» движется огромный айсберг. Уходя от столкновения с ним, судно попадает в ледовый плен и оказывается в вынужденном дрейфе вблизи побережья Антарктиды. Вокруг зловещая тишина и жуткий холод. Горючее на исходе… Нервы на пределе… И даже если можно было бы уйти — деваться все равно некуда. У командования ледокола нет права на ошибку. Одно неверное решение — и тяжелые льды раздавят судно…

  • Мировая премьера: 4 ноября 2016
  • Российская премьера: 20 октября 2016


Качество видео: BDRip-AVC

Продолжительность: 02:03:57
Формат: MKV
Видео: MPEG-4 AVC, 1024x428 (2.40:1), 24.000 fps, 1945 kbps
Аудио: русский, оригинал (лицензия BD RUS), AC3 5.1, 48 kHz, 448 kbps

Код:

Format : Matroska
Format version : Version 2
File size : 2.07 GiB
Duration : 2 h 3 min
Overall bit rate : 2 395 kb/s
Movie name : Ledokol 2016 from ExKinoRay
Encoded date : UTC 2016-12-09 05:49:49
Writing application : mkvmerge v7.6.0 ('Garden of Dreams') 32bit built on Feb 11 2015 00:18:47
Writing library : libebml v1.3.1 + libmatroska v1.4.2

Video
ID : 1
Format : AVC
Format/Info : Advanced Video Codec
Format profile : High@L4.1
Format settings, CABAC : Yes
Format settings, ReFrames : 13 frames
Codec ID : V_MPEG4/ISO/AVC
Duration : 2 h 3 min
Bit rate : 1 945 kb/s
Width : 1 024 pixels
Height : 428 pixels
Display aspect ratio : 2.40:1
Frame rate mode : Constant
Frame rate : 24.000 FPS
Color space : YUV
Chroma subsampling : 4:2:0
Bit depth : 8 bits
Scan type : Progressive
Bits/(Pixel*Frame) : 0.185
Stream size : 1.64 GiB (79%)
Title : Enigma
Writing library : x264 core 144 r2525 40bb568
Encoding settings : cabac=1 / ref=13 / deblock=1:-2:-2 / analyse=0x3:0x113 / me=umh / subme=10 / psy=1 / psy_rd=1.05:0.10 / mixed_ref=1 / me_range=32 / chroma_me=1 / trellis=2 / 8x8dct=1 / cqm=0 / deadzone=21,11 / fast_pskip=1 / chroma_qp_offset=-3 / threads=12 / lookahead_threads=3 / sliced_threads=0 / nr=0 / decimate=1 / interlaced=0 / bluray_compat=0 / constrained_intra=0 / bframes=11 / b_pyramid=2 / b_adapt=2 / b_bias=0 / direct=3 / weightb=1 / open_gop=0 / weightp=2 / keyint=240 / keyint_min=24 / scenecut=40 / intra_refresh=0 / rc_lookahead=40 / rc=2pass / mbtree=0 / bitrate=1945 / ratetol=1.0 / qcomp=0.60 / qpmin=0 / qpmax=51 / qpstep=4 / cplxblur=20.0 / qblur=0.5 / vbv_maxrate=50000 / vbv_bufsize=62500 / nal_hrd=none / filler=0 / ip_ratio=1.40 / pb_ratio=1.30 / aq=1:1.00
Language : English
Default : Yes
Forced : No
Color range : Limited
Color primaries : BT.709
Transfer characteristics : BT.709
Matrix coefficients : BT.709

Audio
ID : 2
Format : AC-3
Format/Info : Audio Coding 3
Mode extension : CM (complete main)
Format settings, Endianness : Big
Codec ID : A_AC3
Duration : 2 h 3 min
Bit rate mode : Constant
Bit rate : 448 kb/s
Channel(s) : 6 channels
Channel positions : Front: L C R, Side: L R, LFE
Sampling rate : 48.0 kHz
Frame rate : 31.250 FPS (1536 spf)
Compression mode : Lossy
Stream size : 397 MiB (19%)
Title : Лицензия
Language : Russian
Default : Yes
Forced : No

Menu
00:00:00.000 : ru:Chapter 01
00:01:27.666 : ru:Chapter 02
00:14:46.833 : ru:Chapter 03
00:29:43.208 : ru:Chapter 04
00:43:48.375 : ru:Chapter 05
01:00:09.125 : ru:Chapter 06
01:14:15.625 : ru:Chapter 07
01:29:17.625 : ru:Chapter 08
01:47:28.041 : ru:Chapter 09
Релиз:

picpicpicpicpic
Для увеличения картинки щелкните мышкой по превью

Этот торрент недоступен для скачивания без регистрации, однако доступен по публичной magnet-ссылке (источники с публичных трекеров). Перед использованием ссылки прочтите, пожалуйста Пользовательское соглашение, а также как можно дольше оставайтесь на раздаче! Для того, чтобы скачать сам торрент-файл (который видит больше источников), а также для того, чтобы поблагодарить релизера, вам необходимо зарегистрироваться. Если регистрироваться лень - вы можете также попробовать скачать релиз по нашим партнерским ссылкам ниже.

[underverse.su].t75090.torrent
Трекер: Зарегистрирован   [ 09.12.2016 15:11 ]  

Статус: проверено (by makkol at 09.12.2016 15:31)
Поблагодарили: 1 человек
Тип торрента: публичный - доступные источники с открытых трекеров: 
Размер: 2,07 GB (занимает 0,47 DVDR, для записи нужно 1 болванка DVDR/RW)
 
 
Похожие темы
Форум Тема Автор Торрент Отв. Посл. сооб.
Зарубежное кино [DVDRip, Low-Res HDRip, и т.д.] Ледокол (Николай Хомерики) [2016 г., драма, BDRip] makkol
1 | 0

0 | 392

11

09.12.2016 14:57

Зарубежное кино [DVDRip, Low-Res HDRip, и т.д.] Ледокол (Николай Хомерики) [2016 г., драма, BDRip] makkol
35 | 1

0 | 343

7

09.12.2016 14:52

Наше кино [DVDRip, Low-Res HDRip, и т.д.] Ледокол (Николай Хомерики) [2016 г., драма, HDRip] 90ytr90
9 | 0

0 | 426

11

13.12.2016 17:29

Наше кино [DVDRip, Low-Res HDRip, и т.д.] Ледокол (Николай Хомерики) [2016 г., драма, BDRip-AVC] 90ytr90
6 | 0

0 | 493

6

12.12.2016 17:50

Зарубежное кино [DVD / HDDVD / BD / Remux] Ледокол (Николай Хомерики) [2016 г., драма, BD-Remux] makkol
1 | 0

0 | 473

5

09.12.2016 15:18

Зарубежное кино [DVD / HDDVD / BD / Remux] Ледокол (Николай Хомерики) [2016 г., драма, Blu-ray Disc] makkol
2 | 0

0 | 622

3

09.12.2016 15:27

Зарубежное кино [HDDVDRip / BDRip / WEB-DL / HDTV 1080/720р] Ледокол (Николай Хомерики) [2016 г., драма, BDRip 1080p] makkol
3 | 0

0 | 442

9

09.12.2016 15:05

* Зарубежное кино [HDDVDRip / BDRip / WEB-DL / HDTV 1080/720р] Ледокол (Николай Хомерики) [2016 г., драма, WEB-DL 1080p] Original (iTunes) 90ytr90

0 | 600

20.11.2016 20:33

Зарубежное кино [HDDVDRip / BDRip / WEB-DL / HDTV 1080/720р] Ледокол (Николай Хомерики) [2016 г., драма, BDRip 1080p] 90ytr90
14 | 0

0 | 382

19

09.12.2016 17:16

Наше кино [HDDVDRip / BDRip / WEB-DL / HDTV 1080/720р] Ледокол (Николай Хомерики) [2016 г., драма, BDRip 720p] 90ytr90
46 | 1

0 | 516

23

13.12.2016 17:24


Яндекс.Метрика powered by Sphinx


В Н И М А Н И Е
Сайт не распространяет и не хранит электронные версии произведений, а лишь бесплатно и без коммерческой выгоды (не требуя взамен платы,
SMS и т.д.) предоставляет доступ к создаваемому пользователями каталогу ссылок на торрент-файлы, которые содержат только списки хеш-сумм.
Убедительная просьба с жалобами обращаться напрямую к пользователю, разместившему торрент файл.

Вверх