Loading...
Error

Ледокол (Николай Хомерики) [2016 г., драма, BDRip]

Статистика раздачи
Размер:  1,37 GB   |    Зарегистрирован:  11 месяцев   |    Скачан:  7 раз

Полного источника не было: 2 месяца 13 дней

Сидов:  0  |  0 KB/s  ]   Личеров:  0  |  0 KB/s  ]

* - сиды/пиры с внешних источников

   
 
Автор Сообщение

makkol Пол:Муж

09-Дек-2016 14:52

Ледокол


Год выпуска: 2016
Жанр: драма
Производство: Россия [Профит]
Режиссер: Николай Хомерики
В ролях: Пётр Фёдоров, Сергей Пускепалис, Анна Михалкова, Ольга Филимонова, Александр Яценко, Александр Паль, Виталий Хаев, Алексей Барабаш, Дмитрий Муляр, Артур Чиргадзе
Сюжет фильма:
Основано на реальных событиях. 1985 год. Навстречу ледоколу «Михаил Громов» движется огромный айсберг. Уходя от столкновения с ним, судно попадает в ледовый плен и оказывается в вынужденном дрейфе вблизи побережья Антарктиды. Вокруг зловещая тишина и жуткий холод. Горючее на исходе… Нервы на пределе… И даже если можно было бы уйти — деваться все равно некуда. У командования ледокола нет права на ошибку. Одно неверное решение — и тяжелые льды раздавят судно…

  • Мировая премьера: 4 ноября 2016
  • Российская премьера: 20 октября 2016


Качество видео: BDRip

Продолжительность: 02:03:57
Формат: AVI
Видео: XviD, 720x304 (2.35:1), 24.000 fps, 1124 kbps
Аудио: русский, оригинал (лицензия BD RUS), AC3 5.1, 48 kHz, 448 kbps

Код:

Формат                                   : AVI
Формат/Информация                        : Audio Video Interleave
Размер файла                             : 1,37 Гбайт
Продолжительность                        : 2 ч. 3 м.
Общий поток                              : 1582 Кбит/сек
Название фильма                          : LedoKol.2O16.O.BDRip.14OOMB_EPIDEMZ.CO
Программа кодирования                    : VirtualDubMod 1.5.10.2 (build 2540/release)
Формат оригинала/Имя                     : Movie

Видео
Идентификатор                            : 0
Формат                                   : MPEG-4 Visual
Профиль формата                          : Advanced Simple@L5
Параметр BVOP формата                    : 2
Параметр QPel формата                    : Нет
Параметр GMC формата                     : Без точки перехода
Параметр матрицы формата                 : Выборочная
Идентификатор кодека                     : XVID
Идентификатор кодека/Подсказка           : XviD
Продолжительность                        : 2 ч. 3 м.
Битрейт                                  : 1124 Кбит/сек
Ширина                                   : 720 пикселей
Высота                                   : 304 пикселя
Соотношение сторон                       : 2,35:1
Частота кадров                           : 24,000 кадра/сек
Цветовое пространство                    : YUV
Субдискретизация насыщенности            : 4:2:0
Битовая глубина                          : 8 бит
Тип развёртки                            : Прогрессивная
Метод сжатия                             : С потерями
Бит/(Пиксели*Кадры)                      : 0.214
Размер потока                            : 997 Мбайт (71%)
Библиотека кодирования                   : XviD 1.2.1 (UTC 2008-12-04)

Аудио
Идентификатор                            : 1
Формат                                   : AC-3
Формат/Информация                        : Audio Coding 3
Расширение режима                        : CM (complete main)
Параметр Endianness формата              : Big
Идентификатор кодека                     : 2000
Продолжительность                        : 2 ч. 3 м.
Вид битрейта                             : Постоянный
Битрейт                                  : 448 Кбит/сек
Каналы                                   : 6 каналов
Расположение каналов                     : Front: L C R, Side: L R, LFE
Частота                                  : 48,0 КГц
Частота кадров                           : 31,250 кадров/сек (1536 spf)
Метод сжатия                             : С потерями
Размер потока                            : 397 Мбайт (28%)
Выравнивание                             : Разделение по промежуткам
Продолжительность промежутка             : 42  мс. (1,00 видеокадр)
Время предзагрузки промежутка            : 500  мс.
picpicpicpicpic
Для увеличения картинки щелкните мышкой по превью

Этот торрент недоступен для скачивания без регистрации, однако доступен по публичной magnet-ссылке (источники с публичных трекеров). Перед использованием ссылки прочтите, пожалуйста Пользовательское соглашение, а также как можно дольше оставайтесь на раздаче! Для того, чтобы скачать сам торрент-файл (который видит больше источников), а также для того, чтобы поблагодарить релизера, вам необходимо зарегистрироваться. Если регистрироваться лень - вы можете также попробовать скачать релиз по нашим партнерским ссылкам ниже.

[underverse.su].t75080.torrent
Трекер: Зарегистрирован   [ 09.12.2016 14:52 ]  

Статус: проверено (by makkol at 09.12.2016 15:32)
Поблагодарили: пока никто не поблагодарил...
Тип торрента: публичный - доступные источники с открытых трекеров: 
Размер: 1,37 GB (занимает 0,31 DVDR, для записи нужно 1 болванка DVDR/RW)
 
 
Похожие темы
Форум Тема Автор Торрент Отв. Посл. сооб.
Зарубежное кино [DVDRip, Low-Res HDRip, и т.д.] Ледокол (Николай Хомерики) [2016 г., драма, BDRip-AVC] makkol
11 | 0

0 | 513

17

09.12.2016 15:11

Зарубежное кино [DVDRip, Low-Res HDRip, и т.д.] Ледокол (Николай Хомерики) [2016 г., драма, BDRip] makkol
1 | 0

0 | 413

11

09.12.2016 14:57

Наше кино [DVDRip, Low-Res HDRip, и т.д.] Ледокол (Николай Хомерики) [2016 г., драма, HDRip] 90ytr90
11 | 0

0 | 448

11

13.12.2016 17:29

Наше кино [DVDRip, Low-Res HDRip, и т.д.] Ледокол (Николай Хомерики) [2016 г., драма, BDRip-AVC] 90ytr90
9 | 0

0 | 525

7

12.12.2016 17:50

Зарубежное кино [DVD / HDDVD / BD / Remux] Ледокол (Николай Хомерики) [2016 г., драма, BD-Remux] makkol
1 | 0

0 | 497

7

09.12.2016 15:18

Зарубежное кино [DVD / HDDVD / BD / Remux] Ледокол (Николай Хомерики) [2016 г., драма, Blu-ray Disc] makkol
3 | 1

0 | 673

4

09.12.2016 15:27

Зарубежное кино [HDDVDRip / BDRip / WEB-DL / HDTV 1080/720р] Ледокол (Николай Хомерики) [2016 г., драма, BDRip 1080p] makkol
3 | 0

0 | 470

9

09.12.2016 15:05

* Зарубежное кино [HDDVDRip / BDRip / WEB-DL / HDTV 1080/720р] Ледокол (Николай Хомерики) [2016 г., драма, WEB-DL 1080p] Original (iTunes) 90ytr90

0 | 617

20.11.2016 20:33

Зарубежное кино [HDDVDRip / BDRip / WEB-DL / HDTV 1080/720р] Ледокол (Николай Хомерики) [2016 г., драма, BDRip 1080p] 90ytr90
37 | 0

0 | 416

21

09.12.2016 17:16

Наше кино [HDDVDRip / BDRip / WEB-DL / HDTV 1080/720р] Ледокол (Николай Хомерики) [2016 г., драма, BDRip 720p] 90ytr90
151 | 2

0 | 590

26

13.12.2016 17:24


Яндекс.Метрика powered by Sphinx


В Н И М А Н И Е
Сайт не распространяет и не хранит электронные версии произведений, а лишь бесплатно и без коммерческой выгоды (не требуя взамен платы,
SMS и т.д.) предоставляет доступ к создаваемому пользователями каталогу ссылок на торрент-файлы, которые содержат только списки хеш-сумм.
Убедительная просьба с жалобами обращаться напрямую к пользователю, разместившему торрент файл.

Вверх