Loading...
Error

Чудо на Гудзоне / Sully (Клинт Иствуд) [2016 г., драма, биография, HDRip] Dub (iTunes)

Статистика раздачи
Размер:  1,37 GB   |    Зарегистрирован:  9 месяцев   |    Скачан:  10 раз

Полного источника не было: 20 дней

Сидов:  0  |  0 KB/s  ]   Личеров:  0  |  0 KB/s  ]

* - сиды/пиры с внешних источников

   
 
Автор Сообщение

makkol Пол:Муж

06-Дек-2016 21:35

Чудо на Гудзоне / Sully
«Правдивая история о чудесном спасении»


Год выпуска: 2016
Жанр: драма, биография
Производство: США [FilmNation Entertainment, Flashlight Films, Warner Bros. Pictures, The Kennedy/Marshall Company]
Режиссер: Клинт Иствуд
В ролях: Том Хэнкс, Аарон Экхарт, Валери Махаффей, Делфи Хэррингтон, Майк О’Мэлли, Джейми Шеридан, Анна Ганн, Холт МакКэллани, Ахмед Хуссэйн, Лора Линни
Сюжет фильма:
Произошедшее 15 января 2009 года назовут «Чудом на Гудзоне». В тот день капитан рейса 1549 Чесли Салленбергер совершил аварийную посадку самолета A320 на холодные воды реки Гудзон в Нью-Йорке. При этом никто из находившихся на борту 155 человек не пострадал. Но, несмотря на все почести со стороны общественности и СМИ, было начато расследование, которое угрожало профессиональной репутации и многолетней карьере капитана Салли.

  • Мировая премьера: 2 сентября 2016
  • Российская премьера: 8 сентября 2016


Качество видео: HDRip

Продолжительность: 01:35:50
Формат: AVI
Видео: XviD, 720x304 (2.35:1), 23.976 fps, 1649 kbps
Аудио: русский, дублированный (iTunes), AC3 5.1, 48 kHz, 384 kbps

Код:

Формат                                   : AVI
Формат/Информация                        : Audio Video Interleave
Размер файла                             : 1,37 Гбайт
Продолжительность                        : 1 ч. 35 м.
Общий поток                              : 2042 Кбит/сек
Программа кодирования                    : VirtualDubMod 1.5.10.3 | www.virtualdub-fr.org || (build 2550/release)
Библиотека кодирования                   : VirtualDubMod build 2550/release

Видео
Идентификатор                            : 0
Формат                                   : MPEG-4 Visual
Профиль формата                          : Advanced Simple@L5
Параметр BVOP формата                    : 2
Параметр QPel формата                    : Нет
Параметр GMC формата                     : Без точки перехода
Параметр матрицы формата                 : Default (MPEG)
Идентификатор кодека                     : XVID
Идентификатор кодека/Подсказка           : XviD
Продолжительность                        : 1 ч. 35 м.
Битрейт                                  : 1649 Кбит/сек
Ширина                                   : 720 пикселей
Высота                                   : 304 пикселя
Соотношение сторон                       : 2,35:1
Частота кадров                           : 23,976 кадра/сек
Цветовое пространство                    : YUV
Субдискретизация насыщенности            : 4:2:0
Битовая глубина                          : 8 бит
Тип развёртки                            : Прогрессивная
Метод сжатия                             : С потерями
Бит/(Пиксели*Кадры)                      : 0.314
Размер потока                            : 1,10 Гбайт (81%)
Библиотека кодирования                   : XviD 1.2.1 (UTC 2008-12-04)

Аудио
Идентификатор                            : 1
Формат                                   : AC-3
Формат/Информация                        : Audio Coding 3
Расширение режима                        : CM (complete main)
Параметр Endianness формата              : Big
Идентификатор кодека                     : 2000
Продолжительность                        : 1 ч. 35 м.
Вид битрейта                             : Постоянный
Битрейт                                  : 384 Кбит/сек
Каналы                                   : 6 каналов
Расположение каналов                     : Front: L C R, Side: L R, LFE
Частота                                  : 48,0 КГц
Битовая глубина                          : 16 бит
Метод сжатия                             : С потерями
Задержка видео                           : 950 мс.
Размер потока                            : 263 Мбайт (19%)
Выравнивание                             : Разделение по промежуткам
Продолжительность промежутка             : 42  мс. (1,00 видеокадр)
Время предзагрузки промежутка            : 500  мс.


picpicpicpicpic
Для увеличения картинки щелкните мышкой по превью

Этот торрент недоступен для скачивания без регистрации, однако доступен по публичной magnet-ссылке (источники с публичных трекеров). Перед использованием ссылки прочтите, пожалуйста Пользовательское соглашение, а также как можно дольше оставайтесь на раздаче! Для того, чтобы скачать сам торрент-файл (который видит больше источников), а также для того, чтобы поблагодарить релизера, вам необходимо зарегистрироваться. Если регистрироваться лень - вы можете также попробовать скачать релиз по нашим партнерским ссылкам ниже.

[underverse.su].t74973.torrent
Трекер: Зарегистрирован   [ 06.12.2016 21:35 ]  

Статус: T временная (by makkol at 06.12.2016 21:56)
Поблагодарили: пока никто не поблагодарил...
Тип торрента: публичный - доступные источники с открытых трекеров: 
Размер: 1,37 GB (занимает 0,31 DVDR, для записи нужно 1 болванка DVDR/RW)
 
 
Похожие темы
Форум Тема Автор Торрент Отв. Посл. сооб.
T Зарубежное кино [DVDRip, Low-Res HDRip, и т.д.] Чудо на Гудзоне / Sully (Клинт Иствуд / Clint Eastwood) [2016 г., драма, биография, HDRip] Dub (чистый звук) 90ytr90
0 | 1

0 | 724

9

03.12.2016 17:41

T Зарубежное кино [DVDRip, Low-Res HDRip, и т.д.] Чудо на Гудзоне / Sully (Клинт Иствуд / Clint Eastwood) [2016 г., драма, биография, HDRip] Dub (чистый звук) + Original (Eng) 90ytr90
1 | 0

0 | 973

27

03.12.2016 16:58

T Зарубежное кино [DVDRip, Low-Res HDRip, и т.д.] Чудо на Гудзоне / Sully (Клинт Иствуд / Clint Eastwood) [2016 г., драма, биография, HDTVRip] Dub (чистый звук)+ hardsub (Kor) 90ytr90
1 | 0

0 | 541

28

24.11.2016 19:30

Зарубежное кино [DVDRip, Low-Res HDRip, и т.д.] Чудо на Гудзоне / Sully (Клинт Иствуд / Clint Eastwood) [2016 г., драма, биография, BDRip-AVC] Dub + Original (Eng) + Sub (Rus, Eng) 90ytr90
21 | 1

0 | 534

6

18.12.2016 15:23

Зарубежное кино [DVDRip, Low-Res HDRip, и т.д.] Чудо на Гудзоне / Sully (Клинт Иствуд / Clint Eastwood) [2016 г., драма, биография, BDRip-AVC] Dub + Sub (Rus) 90ytr90
3 | 0

0 | 460

2

18.12.2016 15:19

Зарубежное кино [DVDRip, Low-Res HDRip, и т.д.] Чудо на Гудзоне / Sully (Клинт Иствуд / Clint Eastwood) [2016 г., драма, биография, HDRip] Dub + Sub (Rus) 90ytr90
1 | 0

0 | 440

3

18.12.2016 14:10

Зарубежное кино [DVDRip, Low-Res HDRip, и т.д.] Чудо на Гудзоне / Sully (Клинт Иствуд / Clint Eastwood) [2016 г., драма, биография, BDRip] Dub + Sub (Rus) 90ytr90
83 | 2

0 | 407

2

18.12.2016 14:02

T Зарубежное кино [DVDRip, Low-Res HDRip, и т.д.] Чудо на Гудзоне / Sully (Клинт Иствуд) [2016 г., драма, биография, HDTVRip] Dub (звук с TS) makkol
97 | 4

0 | 431

22

12.11.2016 20:58

T Зарубежное кино [DVDRip, Low-Res HDRip, и т.д.] Чудо на Гудзоне / Sully (Клинт Иствуд / Clint Eastwood) [2016 г., драма, биография, HDRip] Dub (iTunes) + Sub (Rus) 90ytr90
11 | 3

0 | 590

5

07.12.2016 02:36

T Зарубежное кино [HDDVDRip / BDRip / WEB-DL / HDTV 1080/720р] Чудо на Гудзоне / Sully (Клинт Иствуд / Clint Eastwood) [2016 г., драма, биография, BDRip 1080p] Dub (iTunes) + Original (Eng) + Sub (Rus, Eng) 90ytr90
25 | 3

0 | 687

10

07.12.2016 17:05


Яндекс.Метрика powered by Sphinx


В Н И М А Н И Е
Сайт не распространяет и не хранит электронные версии произведений, а лишь бесплатно и без коммерческой выгоды (не требуя взамен платы,
SMS и т.д.) предоставляет доступ к создаваемому пользователями каталогу ссылок на торрент-файлы, которые содержат только списки хеш-сумм.
Убедительная просьба с жалобами обращаться напрямую к пользователю, разместившему торрент файл.

Вверх