Loading...
Error

(Melodic Power Metal) Crystal Ball - Deja-Voodoo (Limited Edition) (2016) [FLAC (Image+.Cue), Lossless]

Статистика раздачи
Размер:  501 MB   |    Зарегистрирован:  1 год 4 месяца   |    Скачан:  4 раза

Полного источника не было: 13 дней

Сидов:  0  |  0 KB/s  ]   Личеров:  0  |  0 KB/s  ]

* - сиды/пиры с внешних источников

   
 
Автор Сообщение

Бишеп Пол:Муж

29-Ноя-2016 12:48

Crystal Ball - Deja-Voodoo (Limited Edition)

Жанр: Melodic Power Metal
Год выпуска: 2016
Источник: CD
Производитель диска: Massacre Records - MAS DP0952
Аудиокодек: FLAC
Тип рипа: Image+.CUE
Битрейт аудио: lossless
Продолжительность: 00:54:21


Треклист:
01. Déjà-Voodoo
02. Director's Cut
03. Suspended
04. Never a Guarantee
05. Reaching Out
06. Home Again
07. To Freedom and Progress
08. Time and Tide
09. Without a Net
10. Full Disclosure (Bonus Track)
11. Fools‘ Parade (Bonus Track)
12. Dr. Hell No
13. To Be with You Once More

Код:

Exact Audio Copy V1.3 from 2. September 2016

EAC extraction logfile from 24. November 2016, 18:45

Crystal Ball / Deja-Voodoo

Used drive  : ATAPI   iHAS122   W   Adapter: 2  ID: 0

Read mode               : Secure
Utilize accurate stream : Yes
Defeat audio cache      : Yes
Make use of C2 pointers : No

Read offset correction                      : 48
Overread into Lead-In and Lead-Out          : No
Fill up missing offset samples with silence : Yes
Delete leading and trailing silent blocks   : No
Null samples used in CRC calculations       : Yes
Used interface                              : Installed external ASPI interface

Used output format              : User Defined Encoder
Selected bitrate                : 1024 kBit/s
Quality                         : High
Add ID3 tag                     : Yes
Command line compressor         : C:\Program Files\FLAC\flac.exe
Additional command line options : -V -8 -T "Date=%year%" -T "Genre=%genre%" -T"COMMENT=Ripped by  Ilijan" -8 -V %source%

TOC of the extracted CD

     Track |   Start  |  Length  | Start sector | End sector
    ---------------------------------------------------------
        1  |  0:00.00 |  3:43.55 |         0    |    16779   
        2  |  3:43.55 |  4:06.55 |     16780    |    35284   
        3  |  7:50.35 |  4:10.74 |     35285    |    54108   
        4  | 12:01.34 |  3:45.22 |     54109    |    71005   
        5  | 15:46.56 |  4:08.27 |     71006    |    89632   
        6  | 19:55.08 |  4:22.21 |     89633    |   109303   
        7  | 24:17.29 |  4:26.24 |    109304    |   129277   
        8  | 28:43.53 |  4:55.33 |    129278    |   151435   
        9  | 33:39.11 |  3:43.53 |    151436    |   168213   
       10  | 37:22.64 |  3:48.39 |    168214    |   185352   
       11  | 41:11.28 |  3:41.67 |    185353    |   201994   
       12  | 44:53.20 |  3:33.31 |    201995    |   218000   
       13  | 48:26.51 |  5:55.15 |    218001    |   244640   

Range status and errors

Selected range

     Filename D:\ilко\Crystal Ball - Deja-Voodoo.wav

     Peak level 100.0 %
     Extraction speed 3.9 X
     Range quality 99.9 %
     Test CRC B70411B6
     Copy CRC B70411B6
     Copy OK

No errors occurred

 
AccurateRip summary
 
Track  1  accurately ripped (confidence 2)  [5F2DF00E]  (AR v2)
Track  2  accurately ripped (confidence 2)  [2DA0307A]  (AR v2)
Track  3  accurately ripped (confidence 2)  [2DB98B55]  (AR v2)
Track  4  accurately ripped (confidence 2)  [3C31AD80]  (AR v2)
Track  5  accurately ripped (confidence 2)  [152309B5]  (AR v2)
Track  6  accurately ripped (confidence 2)  [454AE6DB]  (AR v2)
Track  7  accurately ripped (confidence 2)  [40FC210D]  (AR v2)
Track  8  accurately ripped (confidence 2)  [DE91C94C]  (AR v2)
Track  9  accurately ripped (confidence 2)  [457B7F5B]  (AR v2)
Track 10  accurately ripped (confidence 2)  [909E2D76]  (AR v2)
Track 11  accurately ripped (confidence 2)  [7910CB39]  (AR v2)
Track 12  accurately ripped (confidence 2)  [5ECDBC06]  (AR v2)
Track 13  accurately ripped (confidence 2)  [384AA669]  (AR v2)
 
All tracks accurately ripped

End of status report

---- CUETools DB Plugin V2.1.6

[CTDB TOCID: T0LytvobVp0ZuzeLwo9RL6fYDBY-] found
Submit result: T0LytvobVp0ZuzeLwo9RL6fYDBY- has been confirmed
Track | CTDB Status
  1   | (3/4) Accurately ripped
  2   | (3/4) Accurately ripped
  3   | (3/4) Accurately ripped
  4   | (3/4) Accurately ripped
  5   | (3/4) Accurately ripped
  6   | (3/4) Accurately ripped
  7   | (3/4) Accurately ripped
  8   | (3/4) Accurately ripped
  9   | (3/4) Accurately ripped
 10   | (3/4) Accurately ripped
 11   | (3/4) Accurately ripped
 12   | (3/4) Accurately ripped
 13   | (3/4) Accurately ripped

==== Log checksum 5D3DF7B1EDCD12690AA648DFB9B83BDBADE612327A56980D9ABDE9BEAE8EEDF8 ====

Код:

REM GENRE "Melodic Metal"
REM DATE 2016
REM DISCID B70CBD0D
REM COMMENT "ExactAudioCopy v1.3"
PERFORMER "Crystal Ball"
TITLE "Deja-Voodoo"
FILE "Crystal Ball - Deja-Voodoo.flac" WAVE
  TRACK 01 AUDIO
    TITLE "Deja-Voodoo"
    PERFORMER "Crystal Ball"
    INDEX 01 00:00:00
  TRACK 02 AUDIO
    TITLE "Director's Cut"
    PERFORMER "Crystal Ball"
    INDEX 01 03:43:55
  TRACK 03 AUDIO
    TITLE "Suspended"
    PERFORMER "Crystal Ball"
    INDEX 01 07:50:35
  TRACK 04 AUDIO
    TITLE "Never A Guarantee"
    PERFORMER "Crystal Ball"
    INDEX 01 12:01:34
  TRACK 05 AUDIO
    TITLE "Reaching Out"
    PERFORMER "Crystal Ball"
    INDEX 01 15:46:56
  TRACK 06 AUDIO
    TITLE "Home Again"
    PERFORMER "Crystal Ball"
    INDEX 01 19:55:08
  TRACK 07 AUDIO
    TITLE "To Freedom And Progress"
    PERFORMER "Crystal Ball"
    INDEX 01 24:17:29
  TRACK 08 AUDIO
    TITLE "Time And Tide"
    PERFORMER "Crystal Ball"
    INDEX 01 28:43:53
  TRACK 09 AUDIO
    TITLE "Without A Net"
    PERFORMER "Crystal Ball"
    INDEX 01 33:39:11
  TRACK 10 AUDIO
    TITLE "Full Disclosure (Bonus Track)"
    PERFORMER "Crystal Ball"
    INDEX 01 37:22:64
  TRACK 11 AUDIO
    TITLE "Fools' Parade (Bonus Track)"
    PERFORMER "Crystal Ball"
    INDEX 01 41:11:28
  TRACK 12 AUDIO
    TITLE "Dr. Hell No"
    PERFORMER "Crystal Ball"
    INDEX 01 44:53:20
  TRACK 13 AUDIO
    TITLE "To Be With You Once More"
    PERFORMER "Crystal Ball"
    INDEX 01 48:26:51

Этот торрент недоступен для скачивания без регистрации, однако доступен по публичной magnet-ссылке (источники с публичных трекеров). Перед использованием ссылки прочтите, пожалуйста Пользовательское соглашение, а также как можно дольше оставайтесь на раздаче! Для того, чтобы скачать сам торрент-файл (который видит больше источников), а также для того, чтобы поблагодарить релизера, вам необходимо зарегистрироваться. Если регистрироваться лень - вы можете также попробовать скачать релиз по нашим партнерским ссылкам ниже. Кроме того, зарегистрированным пользователям не показывается всплывающая реклама при скачивании.

[underverse.su].t74616.torrent
Трекер: Зарегистрирован   [ 29.11.2016 12:48 ]  

Статус: проверено (by Бишеп at 29.11.2016 12:48)
Поблагодарили: пока никто не поблагодарил...
Тип торрента: публичный - доступные источники с открытых трекеров: 
Размер: 501 MB (занимает 0,11 DVDR, для записи нужно 1 болванка DVDR/RW)
 
 
Похожие темы
Форум Тема Автор Торрент Отв. Посл. сооб.
Зарубежный Black, Death, Heavy, Thrash, Power, Folk, Gothic Metal (Melodic Power Metal) German Pascual - A New Beginning (2012) [MP3, 320 kbps CBR] Jimmy
2 | 0

0 | 1219

3

14.12.2012 06:38

Зарубежный Black, Death, Heavy, Thrash, Power, Folk, Gothic Metal (Melodic Power Metal) Avelion - Illusion of Transparency (2017) [MP3, 320 kbps CBR] Darkferse
1 | 0

0 | 350

1

06.04.2017 14:55

Зарубежный Black, Death, Heavy, Thrash, Power, Folk, Gothic Metal (Melodic Power Metal, Progressive Metal) Vienna - Earthquakes To Rearrange (2017) [MP3, 320 kbps CBR] Darkferse
3 | 0

0 | 565

1

16.05.2017 14:45

Зарубежный Black, Death, Heavy, Thrash, Power, Folk, Gothic Metal (Melodic Power Metal) Oversense - The Storyteller (2017) [MP3, 320 kbps CBR] Darkferse
1 | 0

0 | 395

2

21.05.2017 16:05

Зарубежный Black, Death, Heavy, Thrash, Power, Folk, Gothic Metal (Melodic Power Metal) Soulspell - Discography (2008-2017) [MP3, 320 kbps CBR] Darkferse
2 | 2

0 | 159

2

12.12.2017 08:22

Зарубежный Black, Death, Heavy, Thrash, Power, Folk, Gothic Metal (Melodic Power Metal) Power Quest - Дискография (2002-2017) [MP3, 320 kbps CBR] Darkferse
5 | 0

0 | 327

4

13.10.2017 12:36

Зарубежный Black, Death, Heavy, Thrash, Power, Folk, Gothic Metal (Melodic Power Metal) Keldian - Darkness And Light (2017) [MP3, 320 kbps CBR] Darkferse
1 | 0

0 | 412

3

27.10.2017 12:28

Зарубежный Black, Death, Heavy, Thrash, Power, Folk, Gothic Metal (Melodic Progressive Metal, Hard Rock) Myon - Discography (1998-2015) [MP3, 320 kbps CBR] Darkferse
5 | 0

0 | 288

1

09.12.2017 18:30

Зарубежный Black, Death, Heavy, Thrash, Power, Folk, Gothic Metal (Melodic Progressive Metal) Born In Exile - Drizzle Of Cosmos (2017) [MP3, 320 kbps CBR] Darkferse
2 | 0

0 | 176

1

11.12.2017 11:07

Зарубежный Black, Death, Heavy, Thrash, Power, Folk, Gothic Metal (Melodic Power Metal, Speed Metal) Tragedian - Discography (2008-2017) [MP3, 320 kbps CBR] Darkferse
9 | 0

0 | 358

1

20.12.2017 20:53


Яндекс.Метрика powered by Sphinx


В Н И М А Н И Е
Сайт не распространяет и не хранит электронные версии произведений, а лишь бесплатно и без коммерческой выгоды (не требуя взамен платы,
SMS и т.д.) предоставляет доступ к создаваемому пользователями каталогу ссылок на торрент-файлы, которые содержат только списки хеш-сумм.
Убедительная просьба с жалобами обращаться напрямую к пользователю, разместившему торрент файл.

Вверх