Loading...
Error

Колдовство Бена Вагнера / The Witching of Ben Wagner (Пол Аннет) [1990 г., семейный, приключения, DVDRip] AVO (Визгунов)

Статистика раздачи
Размер:  1,37 GB   |    Зарегистрирован:  1 год 1 месяц   |    Скачан:  1 раз

Полного источника не было: 10 месяцев

Сидов:  0  |  0 KB/s  ]   Личеров:  0  |  0 KB/s  ]

* - сиды/пиры с внешних источников

   
 
Автор Сообщение

makkol Пол:Муж

28-Ноя-2016 11:07

Колдовство Бена Вагнера / The Witching of Ben Wagner


Год выпуска: 1990
Жанр: семейный, приключения
Страна: США
Режиссер: Пол Аннет
В ролях: Сэм Боттомс, Харриет Холл, Беттина Рэй, Сильвия Сидни, Джэми Баллард, Крэйг Клайд, Марвин Пэйн, Эми Оллред, Скотт МакМиллан, Билл Лоуренс, Карен Олстон, Дэвид Вэйд Бэттл, Ричард Джукес
Сюжет фильма:
Семья переезжает на новое место работы отца в очень красивом городке в горах. Герой этого фильма, одиннадцатилетний мальчик, знакомится с девочкой у озера, которую все считают ведьмой. Ведьмой считают и ее бабушку. Но мальчику она нравится. Она помогает ему поверить в себя, а он, думая, что это колдовство, поверил в себя настолько, что добивается успехов там, где ему это раньше и не снилось — даже в баскетболе. А в конце «заколдованными» оказались все члены его семьи. Даже папа, который спасает прекрасное озеро от постройки современного комплекса.

Качество видео: DVDRip

Продолжительность: 01:29:24
Формат: AVI
Видео: XviD, 640x480 (4:3), 23.976 fps, 1985 kbps
Аудио: русский, авторский одноголосый закадровый (Сергей Визгунов), AC3 2.0, 48 kHz, 192 kbps

Код:

Format : AVI
Format/Info : Audio Video Interleave
File size : 1.37 GiB
Duration : 1 h 29 min
Overall bit rate : 2 187 kb/s
Movie name : Колдовство Бена Вагнера - The Witching of Ben Wagner [Edich2]
Director : by Edich2
Writing application : VirtualDubMod 1.5.10.2 (build 2540/release)
Comment : *другой трекер*

Video
ID : 0
Format : MPEG-4 Visual
Format profile : Advanced Simple@L5
Format settings, BVOP : 2
Format settings, QPel : No
Format settings, GMC : No warppoints
Format settings, Matrix : Custom
Codec ID : XVID
Codec ID/Hint : XviD
Duration : 1 h 29 min
Bit rate : 1 986 kb/s
Width : 640 pixels
Height : 480 pixels
Display aspect ratio : 4:3
Frame rate : 23.976 (24000/1001) FPS
Color space : YUV
Chroma subsampling : 4:2:0
Bit depth : 8 bits
Scan type : Progressive
Compression mode : Lossy
Bits/(Pixel*Frame) : 0.270
Stream size : 1.24 GiB (91%)
Writing library : XviD 73

Audio
ID : 1
Format : AC-3
Format/Info : Audio Coding 3
Mode extension : CM (complete main)
Format settings, Endianness : Big
Codec ID : 2000
Duration : 1 h 29 min
Bit rate mode : Constant
Bit rate : 192 kb/s
Channel(s) : 2 channels
Channel positions : Front: L R
Sampling rate : 48.0 kHz
Frame rate : 31.250 FPS (1536 spf)
Compression mode : Lossy
Delay relative to video : 500 ms
Stream size : 123 MiB (9%)
Alignment : Split accross interleaves
Interleave, duration : 42 ms (1.00 video frame)
Interleave, preload duratio : 500 ms
picpicpicpicpic
Для увеличения картинки щелкните мышкой по превью

Этот торрент недоступен для скачивания без регистрации, однако доступен по публичной magnet-ссылке (источники с публичных трекеров). Перед использованием ссылки прочтите, пожалуйста Пользовательское соглашение, а также как можно дольше оставайтесь на раздаче! Для того, чтобы скачать сам торрент-файл (который видит больше источников), а также для того, чтобы поблагодарить релизера, вам необходимо зарегистрироваться. Если регистрироваться лень - вы можете также попробовать скачать релиз по нашим партнерским ссылкам ниже. Кроме того, зарегистрированным пользователям не показывается всплывающая реклама при скачивании.

[underverse.su].t74548.torrent
Трекер: Зарегистрирован   [ 28.11.2016 11:07 ]  

Статус: проверено (by Паукан at 29.11.2016 09:02)
Поблагодарили: пока никто не поблагодарил...
Тип торрента: публичный - доступные источники с открытых трекеров: 
Размер: 1,37 GB (занимает 0,31 DVDR, для записи нужно 1 болванка DVDR/RW)
 
 

Яндекс.Метрика powered by Sphinx


В Н И М А Н И Е
Сайт не распространяет и не хранит электронные версии произведений, а лишь бесплатно и без коммерческой выгоды (не требуя взамен платы,
SMS и т.д.) предоставляет доступ к создаваемому пользователями каталогу ссылок на торрент-файлы, которые содержат только списки хеш-сумм.
Убедительная просьба с жалобами обращаться напрямую к пользователю, разместившему торрент файл.

Вверх