Loading...
Error

(Ambient, Dub Techno, Downtempo) Martin Nonstatic - Inner Landscapes (2014) [FLAC (Tracks+.Cue), Lossless]

Статистика раздачи
Размер:  336 MB   |    Зарегистрирован:  1 год 6 месяцев   |    Скачан:  4 раза

Полного источника не было: 6 дней

Сидов:  0  |  0 KB/s  ]   Личеров:  0  |  0 KB/s  ]

* - сиды/пиры с внешних источников

   
 
Автор Сообщение

Бишеп Пол:Муж

24-Ноя-2016 17:40

Martin Nonstatic - Inner Landscapes

Жанр: Ambient, Dub Techno, Downtempo
Год выпуска: 2014
Источник: CD
Производитель диска: BineMusic - BINE 032CD
Аудиокодек: FLAC
Тип рипа: Tracks+.CUE
Битрейт аудио: lossless
Продолжительность: 01:08:41


Треклист:
01. Behind The Window - Intro (3:28)
02. The Window - IC Friendship Edit (7:02)
03. Far Away (6:53)
04. Soul Beauty (7:30)
05. Cloud Shapes (5:11)
06. Inner Landscapes (6:06)
07. Albedo Effect (5:41)
08. Outer Landscapes (5:23)
09. Gilli Nangu (4:44)
10. Liquid Air (2:15)
11. Now And Then (5:23)
12. Her Dream Diary (4:58)
13. Soul Beauty - Outro (4:11)

Код:

Exact Audio Copy V1.0 beta 3 from 29. August 2011

EAC extraction logfile from 26. September 2014, 14:16

Martin Nonstatic / Inner Landscapes

Used drive  : BENQ    CDRW 5232X   Adapter: 4  ID: 0

Read mode               : Secure
Utilize accurate stream : Yes
Defeat audio cache      : Yes
Make use of C2 pointers : No

Read offset correction                      : 738
Overread into Lead-In and Lead-Out          : No
Fill up missing offset samples with silence : Yes
Delete leading and trailing silent blocks   : No
Null samples used in CRC calculations       : Yes
Used interface                              : Installed external ASPI interface
Gap handling                                : Appended to previous track

Used output format              : User Defined Encoder
Selected bitrate                : 1024 kBit/s
Quality                         : High
Add ID3 tag                     : No
Command line compressor         : D:\Programme\Flac\flac.exe
Additional command line options : -8 -V -T "ARTIST=%artist%" -T "TITLE=%title%" -T "ALBUM=%albumtitle%" -T "DATE=%year%" -T "TRACKNUMBER=%tracknr%" -T "GENRE=%genre%" -T "PERFORMER=%albuminterpret%" -T "COMPOSER=%composer%" %haslyrics%--tag-from-file=LYRICS="%lyricsfile%"%haslyrics% -T "ALBUMARTIST=%albumartist%" -T "DISCNUMBER=%cdnumber%" -T "TOTALDISCS=%totalcds%" -T "TOTALTRACKS=%numtracks%" -T "COMMENT=%comment%" %source% -o %dest%

TOC of the extracted CD

     Track |   Start  |  Length  | Start sector | End sector
    ---------------------------------------------------------
        1  |  0:00.00 |  3:27.56 |         0    |    15580   
        2  |  3:27.56 |  7:01.39 |     15581    |    47194   
        3  | 10:29.20 |  6:52.47 |     47195    |    78141   
        4  | 17:21.67 |  7:29.65 |     78142    |   111881   
        5  | 24:51.57 |  5:10.52 |    111882    |   135183   
        6  | 30:02.34 |  6:05.43 |    135184    |   162601   
        7  | 36:08.02 |  5:40.16 |    162602    |   188117   
        8  | 41:48.18 |  5:22.69 |    188118    |   212336   
        9  | 47:11.12 |  4:43.54 |    212337    |   233615   
       10  | 51:54.66 |  2:14.35 |    233616    |   243700   
       11  | 54:09.26 |  5:22.26 |    243701    |   267876   
       12  | 59:31.52 |  4:57.54 |    267877    |   290205   
       13  | 64:29.31 |  4:11.70 |    290206    |   309100   

Track  1

     Filename E:\MP3\EAC\Martin Nonstatic - Inner Landscapes (FLAC)\01 - Behind The Window - Intro.wav

     Pre-gap length  0:00:02.00

     Peak level 98.6 %
     Extraction speed 6.5 X
     Track quality 100.0 %
     Test CRC F4D7E3F3
     Copy CRC F4D7E3F3
     Track not present in AccurateRip database
     Copy OK

Track  2

     Filename E:\MP3\EAC\Martin Nonstatic - Inner Landscapes (FLAC)\02 - The Window - IC Friendship Edit.wav

     Peak level 98.6 %
     Extraction speed 7.7 X
     Track quality 100.0 %
     Test CRC 22175849
     Copy CRC 22175849
     Track not present in AccurateRip database
     Copy OK

Track  3

     Filename E:\MP3\EAC\Martin Nonstatic - Inner Landscapes (FLAC)\03 - Far Away.wav

     Peak level 98.6 %
     Extraction speed 8.1 X
     Track quality 99.9 %
     Test CRC 4DC1EC1A
     Copy CRC 4DC1EC1A
     Track not present in AccurateRip database
     Copy OK

Track  4

     Filename E:\MP3\EAC\Martin Nonstatic - Inner Landscapes (FLAC)\04 - Soul Beauty.wav

     Peak level 98.6 %
     Extraction speed 9.2 X
     Track quality 99.9 %
     Test CRC 8C8518A1
     Copy CRC 8C8518A1
     Track not present in AccurateRip database
     Copy OK

Track  5

     Filename E:\MP3\EAC\Martin Nonstatic - Inner Landscapes (FLAC)\05 - Cloud Shapes.wav

     Peak level 98.6 %
     Extraction speed 10.1 X
     Track quality 100.0 %
     Test CRC C0C35C79
     Copy CRC C0C35C79
     Track not present in AccurateRip database
     Copy OK

Track  6

     Filename E:\MP3\EAC\Martin Nonstatic - Inner Landscapes (FLAC)\06 - Inner Landscapes.wav

     Peak level 98.6 %
     Extraction speed 10.8 X
     Track quality 100.0 %
     Test CRC 16BBD058
     Copy CRC 16BBD058
     Track not present in AccurateRip database
     Copy OK

Track  7

     Filename E:\MP3\EAC\Martin Nonstatic - Inner Landscapes (FLAC)\07 - Albedo Effect.wav

     Peak level 98.6 %
     Extraction speed 10.9 X
     Track quality 100.0 %
     Test CRC 2FFE15F2
     Copy CRC 2FFE15F2
     Track not present in AccurateRip database
     Copy OK

Track  8

     Filename E:\MP3\EAC\Martin Nonstatic - Inner Landscapes (FLAC)\08 - Outer Landscapes.wav

     Peak level 98.6 %
     Extraction speed 11.0 X
     Track quality 100.0 %
     Test CRC F036CD09
     Copy CRC F036CD09
     Track not present in AccurateRip database
     Copy OK

Track  9

     Filename E:\MP3\EAC\Martin Nonstatic - Inner Landscapes (FLAC)\09 - Gilli Nangu.wav

     Peak level 98.6 %
     Extraction speed 10.9 X
     Track quality 100.0 %
     Test CRC 72029668
     Copy CRC 72029668
     Track not present in AccurateRip database
     Copy OK

Track 10

     Filename E:\MP3\EAC\Martin Nonstatic - Inner Landscapes (FLAC)\10 - Liquid Air.wav

     Peak level 98.6 %
     Extraction speed 8.2 X
     Track quality 99.9 %
     Test CRC 856886D5
     Copy CRC 856886D5
     Track not present in AccurateRip database
     Copy OK

Track 11

     Filename E:\MP3\EAC\Martin Nonstatic - Inner Landscapes (FLAC)\11 - Now And Then.wav

     Peak level 98.6 %
     Extraction speed 10.0 X
     Track quality 99.9 %
     Test CRC C56CEC53
     Copy CRC C56CEC53
     Track not present in AccurateRip database
     Copy OK

Track 12

     Filename E:\MP3\EAC\Martin Nonstatic - Inner Landscapes (FLAC)\12 - Her Dream Diary.wav

     Peak level 98.6 %
     Extraction speed 12.0 X
     Track quality 100.0 %
     Test CRC 81FFCD6D
     Copy CRC 81FFCD6D
     Track not present in AccurateRip database
     Copy OK

Track 13

     Filename E:\MP3\EAC\Martin Nonstatic - Inner Landscapes (FLAC)\13 - Soul Beauty - Outro.wav

     Peak level 98.6 %
     Extraction speed 11.8 X
     Track quality 100.0 %
     Test CRC 55A065C8
     Copy CRC 55A065C8
     Track not present in AccurateRip database
     Copy OK

None of the tracks are present in the AccurateRip database

No errors occurred

End of status report

---- CUETools DB Plugin V2.1.3

[CTDB TOCID: 7NHeUV_EQBHbVwBaEUud3266nAc-] disk not present in database, Submit result: 7NHeUV_EQBHbVwBaEUud3266nAc- has been uploaded

==== Log checksum 67B015097AAE29D0B51A74E97955133AA95B0321AEB10E0EF6E1D5021C7CE1FC ====

Код:

REM GENRE "Dub Techno"
REM DATE 2014
REM DISCID 9A10190D
REM COMMENT "ExactAudioCopy v1.0b3"
PERFORMER "Martin Nonstatic"
TITLE "Inner Landscapes"
FILE "01 - Behind The Window - Intro.wav" WAVE
  TRACK 01 AUDIO
    TITLE "Behind The Window - Intro"
    PERFORMER "Martin Nonstatic"
    INDEX 01 00:00:00
FILE "02 - The Window - IC Friendship Edit.wav" WAVE
  TRACK 02 AUDIO
    TITLE "The Window - IC Friendship Edit"
    PERFORMER "Martin Nonstatic"
    INDEX 01 00:00:00
FILE "03 - Far Away.wav" WAVE
  TRACK 03 AUDIO
    TITLE "Far Away"
    PERFORMER "Martin Nonstatic"
    INDEX 01 00:00:00
FILE "04 - Soul Beauty.wav" WAVE
  TRACK 04 AUDIO
    TITLE "Soul Beauty"
    PERFORMER "Martin Nonstatic"
    INDEX 01 00:00:00
FILE "05 - Cloud Shapes.wav" WAVE
  TRACK 05 AUDIO
    TITLE "Cloud Shapes"
    PERFORMER "Martin Nonstatic"
    INDEX 01 00:00:00
FILE "06 - Inner Landscapes.wav" WAVE
  TRACK 06 AUDIO
    TITLE "Inner Landscapes"
    PERFORMER "Martin Nonstatic"
    INDEX 01 00:00:00
FILE "07 - Albedo Effect.wav" WAVE
  TRACK 07 AUDIO
    TITLE "Albedo Effect"
    PERFORMER "Martin Nonstatic"
    INDEX 01 00:00:00
FILE "08 - Outer Landscapes.wav" WAVE
  TRACK 08 AUDIO
    TITLE "Outer Landscapes"
    PERFORMER "Martin Nonstatic"
    INDEX 01 00:00:00
FILE "09 - Gilli Nangu.wav" WAVE
  TRACK 09 AUDIO
    TITLE "Gilli Nangu"
    PERFORMER "Martin Nonstatic"
    INDEX 01 00:00:00
FILE "10 - Liquid Air.wav" WAVE
  TRACK 10 AUDIO
    TITLE "Liquid Air"
    PERFORMER "Martin Nonstatic"
    INDEX 01 00:00:00
FILE "11 - Now And Then.wav" WAVE
  TRACK 11 AUDIO
    TITLE "Now And Then"
    PERFORMER "Martin Nonstatic"
    INDEX 01 00:00:00
FILE "12 - Her Dream Diary.wav" WAVE
  TRACK 12 AUDIO
    TITLE "Her Dream Diary"
    PERFORMER "Martin Nonstatic"
    INDEX 01 00:00:00
FILE "13 - Soul Beauty - Outro.wav" WAVE
  TRACK 13 AUDIO
    TITLE "Soul Beauty - Outro"
    PERFORMER "Martin Nonstatic"
    INDEX 01 00:00:00

Этот торрент недоступен для скачивания без регистрации, однако доступен по публичной magnet-ссылке (источники с публичных трекеров). Перед использованием ссылки прочтите, пожалуйста Пользовательское соглашение, а также как можно дольше оставайтесь на раздаче! Для того, чтобы скачать сам торрент-файл (который видит больше источников), а также для того, чтобы поблагодарить релизера, вам необходимо зарегистрироваться. Если регистрироваться лень - вы можете также попробовать скачать релиз по нашим партнерским ссылкам ниже. Кроме того, зарегистрированным пользователям не показывается всплывающая реклама при скачивании.

[underverse.su].t74348.torrent
Трекер: Зарегистрирован   [ 24.11.2016 17:40 ]  

Статус: проверено (by Бишеп at 24.11.2016 17:40)
Поблагодарили: пока никто не поблагодарил...
Тип торрента: публичный - доступные источники с открытых трекеров: 
Размер: 336 MB (занимает 0,07 DVDR, для записи нужно 1 болванка DVDR/RW)
 
 
Похожие темы
Форум Тема Автор Торрент Отв. Посл. сооб.
PsyChill, Ambient Dub (Ambient, Chillout, Trance) MDB - Beautiful Voices 001-053 - 2007-2011, MP3 (image+.cue), 256-320 kbps 8ad_R060d
9 | 2

1 | 2551

20

17.07.2013 20:38

PsyChill, Ambient Dub (Ambient, Downtempo, Psychill) Keemiyo - A Mystical Journey (2016) [MP3, 320 kbps] ANDRAKO
0 | 0

0 | 578

3

08.11.2016 12:54

PsyChill, Ambient Dub (Ambient, Dub Techno) Lars Leonhard - Orange Dawn (2016) [MP3, 320 kbps] ANDRAKO
5 | 0

0 | 551

3

08.11.2016 12:51

PsyChill, Ambient Dub (Ambient, Downtempo, Chillout) Valdi Sabev - Imagined Vol. 1 (2017) [MP3, 320 kbps CBR] Darkferse
3 | 0

0 | 556

2

13.05.2017 09:33

PsyChill, Ambient Dub (Ambient, PsyChill, Downtempo) Nibana - Fireside Tales (EP) (2016) [MP3, 320 kbps CBR] Darkferse
6 | 0

0 | 572

2

14.01.2017 19:43

PsyChill, Ambient Dub (Ambient, Dub Techno) Lav & Purl - A State Of Becoming (2017) [MP3, 320 kbps CBR] Darkferse
3 | 0

0 | 426

2

03.03.2017 16:06

PsyChill, Ambient Dub (Ambient, Psybient) IooN-Cosmic Downtempo - Masters Of Universe (2017) [MP3, 320 kbps CBR] Darkferse
3 | 0

0 | 438

3

03.03.2017 17:23

PsyChill, Ambient Dub (Ambient, Psybient) Mindsphere - Mental Triplex : Mindream (2017) [MP3, 320 kbps CBR] Darkferse
11 | 0

0 | 777

4

05.03.2017 18:16

PsyChill, Ambient Dub (Ambient, Dub, Orchestral Psychedelic) Taktyle - Once (2017) [MP3, 320 kbps CBR] Darkferse
2 | 0

0 | 547

2

20.03.2017 21:07

PsyChill, Ambient Dub (Ambient, Downtempo, Psybient) Solaris - Aeon V (2017) [MP3, 320 kbps CBR] Darkferse
5 | 0

0 | 690

2

24.03.2017 00:14


Яндекс.Метрика powered by Sphinx


В Н И М А Н И Е
Сайт не распространяет и не хранит электронные версии произведений, а лишь бесплатно и без коммерческой выгоды (не требуя взамен платы,
SMS и т.д.) предоставляет доступ к создаваемому пользователями каталогу ссылок на торрент-файлы, которые содержат только списки хеш-сумм.
Убедительная просьба с жалобами обращаться напрямую к пользователю, разместившему торрент файл.

Вверх