Loading...
Error

(Experimental, Techno) Answer Code Request - Code (2014) [FLAC (Tracks+.Cue), Lossless]

Статистика раздачи
Размер:  285 MB   |    Зарегистрирован:  1 год 6 месяцев   |    Скачан:  4 раза

Полного источника не было: 26 дней

Сидов:  0  |  0 KB/s  ]   Личеров:  0  |  0 KB/s  ]

* - сиды/пиры с внешних источников

   
 
Автор Сообщение

Бишеп Пол:Муж

24-Ноя-2016 17:26

Answer Code Request - Code

Жанр: Experimental, Techno
Год выпуска: 2014
Источник: CD
Производитель диска: Ostgut Ton - OSTGUTCD31
Аудиокодек: FLAC
Тип рипа: Tracks+.CUE
Битрейт аудио: lossless
Продолжительность: 00:50:36


Треклист:
01. Code
02. Blue Russian
03. Field Depth
04. Odyssey Sequence
05. Zenith
06. Relay Access
07. Status
08. Haul
09. Spin Off
10. By The Bay
11. Axif
12. Thermal Capacity

Код:

Exact Audio Copy V1.0 beta 3 from 29. August 2011

EAC extraction logfile from 27. June 2014, 17:50

Answer Code Request / Code

Used drive  : ASUS    DRW-24B5ST   Adapter: 3  ID: 0

Read mode               : Secure
Utilize accurate stream : Yes
Defeat audio cache      : Yes
Make use of C2 pointers : No

Read offset correction                      : 6
Overread into Lead-In and Lead-Out          : No
Fill up missing offset samples with silence : Yes
Delete leading and trailing silent blocks   : No
Null samples used in CRC calculations       : Yes
Used interface                              : Native Win32 interface for Win NT & 2000
Gap handling                                : Appended to previous track

Used output format              : User Defined Encoder
Selected bitrate                : 896 kBit/s
Quality                         : High
Add ID3 tag                     : No
Command line compressor         : C:\Program Files (x86)\Exact Audio Copy\Flac\flac.exe
Additional command line options : -8 -V -T "ARTIST=%artist%" -T "TITLE=%title%" -T "ALBUM=%albumtitle%" -T "DATE=%year%" -T "TRACKNUMBER=%tracknr%" -T "GENRE=%genre%" -T "PERFORMER=%albuminterpret%" -T "COMPOSER=%composer%" %haslyrics%--tag-from-file=LYRICS="%lyricsfile%"%haslyrics% -T "ALBUMARTIST=%albumartist%" -T "DISCNUMBER=%cdnumber%" -T "TOTALDISCS=%totalcds%" -T "TOTALTRACKS=%numtracks%" -T "COMMENT=%comment%" %source% -o %dest%

TOC of the extracted CD

     Track |   Start  |  Length  | Start sector | End sector
    ---------------------------------------------------------
        1  |  0:00.00 |  1:03.07 |         0    |     4731   
        2  |  1:03.07 |  5:33.24 |      4732    |    29730   
        3  |  6:36.31 |  4:43.33 |     29731    |    50988   
        4  | 11:19.64 |  4:12.35 |     50989    |    69923   
        5  | 15:32.24 |  5:48.12 |     69924    |    96035   
        6  | 21:20.36 |  3:37.16 |     96036    |   112326   
        7  | 24:57.52 |  5:00.00 |    112327    |   134826   
        8  | 29:57.52 |  5:20.18 |    134827    |   158844   
        9  | 35:17.70 |  1:04.19 |    158845    |   163663   
       10  | 36:22.14 |  4:36.66 |    163664    |   184429   
       11  | 40:59.05 |  3:19.44 |    184430    |   199398   
       12  | 44:18.49 |  6:17.46 |    199399    |   227719   

Track  1

     Filename L:\MUSIC\Answer Code Request - Code (2014) [CD-FLAC]\1-01. Answer Code Request - Code.wav

     Pre-gap length  0:00:02.00

     Peak level 95.2 %
     Extraction speed 0.6 X
     Track quality 99.8 %
     Test CRC FA5A9C95
     Copy CRC FA5A9C95
     Track not present in AccurateRip database
     Copy OK

Track  2

     Filename L:\MUSIC\Answer Code Request - Code (2014) [CD-FLAC]\1-02. Answer Code Request - Blue Russian.wav

     Peak level 97.4 %
     Extraction speed 1.6 X
     Track quality 99.9 %
     Test CRC C59A2122
     Copy CRC C59A2122
     Track not present in AccurateRip database
     Copy OK

Track  3

     Filename L:\MUSIC\Answer Code Request - Code (2014) [CD-FLAC]\1-03. Answer Code Request - Field Depth.wav

     Peak level 97.3 %
     Extraction speed 2.3 X
     Track quality 100.0 %
     Test CRC 5B455CEF
     Copy CRC 5B455CEF
     Track not present in AccurateRip database
     Copy OK

Track  4

     Filename L:\MUSIC\Answer Code Request - Code (2014) [CD-FLAC]\1-04. Answer Code Request - Odyssey Sequence.wav

     Peak level 96.9 %
     Extraction speed 2.5 X
     Track quality 100.0 %
     Test CRC 02BA1586
     Copy CRC 02BA1586
     Track not present in AccurateRip database
     Copy OK

Track  5

     Filename L:\MUSIC\Answer Code Request - Code (2014) [CD-FLAC]\1-05. Answer Code Request - Zenith.wav

     Peak level 96.8 %
     Extraction speed 2.7 X
     Track quality 100.0 %
     Test CRC 44912877
     Copy CRC 44912877
     Track not present in AccurateRip database
     Copy OK

Track  6

     Filename L:\MUSIC\Answer Code Request - Code (2014) [CD-FLAC]\1-06. Answer Code Request - Relay Access.wav

     Peak level 97.3 %
     Extraction speed 2.8 X
     Track quality 100.0 %
     Test CRC 767A3F7F
     Copy CRC 767A3F7F
     Track not present in AccurateRip database
     Copy OK

Track  7

     Filename L:\MUSIC\Answer Code Request - Code (2014) [CD-FLAC]\1-07. Answer Code Request - Status.wav

     Peak level 97.2 %
     Extraction speed 3.0 X
     Track quality 100.0 %
     Test CRC 4EAEAACA
     Copy CRC 4EAEAACA
     Track not present in AccurateRip database
     Copy OK

Track  8

     Filename L:\MUSIC\Answer Code Request - Code (2014) [CD-FLAC]\1-08. Answer Code Request - Haul.wav

     Peak level 97.3 %
     Extraction speed 3.2 X
     Track quality 100.0 %
     Test CRC C0621869
     Copy CRC C0621869
     Track not present in AccurateRip database
     Copy OK

Track  9

     Filename L:\MUSIC\Answer Code Request - Code (2014) [CD-FLAC]\1-09. Answer Code Request - Spin Off.wav

     Peak level 77.3 %
     Extraction speed 2.3 X
     Track quality 100.0 %
     Test CRC 1006B25C
     Copy CRC 1006B25C
     Track not present in AccurateRip database
     Copy OK

Track 10

     Filename L:\MUSIC\Answer Code Request - Code (2014) [CD-FLAC]\1-10. Answer Code Request - By The Bay.wav

     Peak level 97.4 %
     Extraction speed 2.5 X
     Track quality 99.9 %
     Test CRC 07C3500E
     Copy CRC 07C3500E
     Track not present in AccurateRip database
     Copy OK

Track 11

     Filename L:\MUSIC\Answer Code Request - Code (2014) [CD-FLAC]\1-11. Answer Code Request feat. Elizabeth Bernholz - Axif.wav

     Peak level 97.2 %
     Extraction speed 3.3 X
     Track quality 100.0 %
     Test CRC 11FE7E64
     Copy CRC 11FE7E64
     Track not present in AccurateRip database
     Copy OK

Track 12

     Filename L:\MUSIC\Answer Code Request - Code (2014) [CD-FLAC]\1-12. Answer Code Request - Thermal Capacity.wav

     Peak level 97.4 %
     Extraction speed 3.8 X
     Track quality 100.0 %
     Test CRC DCBDC311
     Copy CRC DCBDC311
     Track not present in AccurateRip database
     Copy OK

None of the tracks are present in the AccurateRip database

No errors occurred

End of status report

---- CUETools DB Plugin V2.1.3

[CTDB TOCID: ZI9Hk3WKDoHmxasEAdTkLwYGw6U-] disk not present in database, Submit result: ZI9Hk3WKDoHmxasEAdTkLwYGw6U- has been uploaded

==== Log checksum 2663BA5815EA70BAE1A88CFDCD86129FE31757EB37485A1C7FDEACA38AE22C2B ====

Код:

REM GENRE Techno
REM DATE 2014
REM DISCID B50BDC0C
REM COMMENT "ExactAudioCopy v1.0b3"
PERFORMER "Answer Code Request"
TITLE "Code"
FILE "1-01. Answer Code Request - Code.wav" WAVE
  TRACK 01 AUDIO
    TITLE "Code"
    PERFORMER "Answer Code Request"
    ISRC DELG71400596
    INDEX 01 00:00:00
FILE "1-02. Answer Code Request - Blue Russian.wav" WAVE
  TRACK 02 AUDIO
    TITLE "Blue Russian"
    PERFORMER "Answer Code Request"
    ISRC DELG71400597
    INDEX 01 00:00:00
FILE "1-03. Answer Code Request - Field Depth.wav" WAVE
  TRACK 03 AUDIO
    TITLE "Field Depth"
    PERFORMER "Answer Code Request"
    ISRC DELG71400598
    INDEX 01 00:00:00
FILE "1-04. Answer Code Request - Odyssey Sequence.wav" WAVE
  TRACK 04 AUDIO
    TITLE "Odyssey Sequence"
    PERFORMER "Answer Code Request"
    ISRC DELG71400599
    INDEX 01 00:00:00
FILE "1-05. Answer Code Request - Zenith.wav" WAVE
  TRACK 05 AUDIO
    TITLE "Zenith"
    PERFORMER "Answer Code Request"
    ISRC DELG71400600
    INDEX 01 00:00:00
FILE "1-06. Answer Code Request - Relay Access.wav" WAVE
  TRACK 06 AUDIO
    TITLE "Relay Access"
    PERFORMER "Answer Code Request"
    ISRC DELG71400601
    INDEX 01 00:00:00
FILE "1-07. Answer Code Request - Status.wav" WAVE
  TRACK 07 AUDIO
    TITLE "Status"
    PERFORMER "Answer Code Request"
    ISRC DELG71400602
    INDEX 01 00:00:00
FILE "1-08. Answer Code Request - Haul.wav" WAVE
  TRACK 08 AUDIO
    TITLE "Haul"
    PERFORMER "Answer Code Request"
    ISRC DELG71400603
    INDEX 01 00:00:00
FILE "1-09. Answer Code Request - Spin Off.wav" WAVE
  TRACK 09 AUDIO
    TITLE "Spin Off"
    PERFORMER "Answer Code Request"
    ISRC DELG71400604
    INDEX 01 00:00:00
FILE "1-10. Answer Code Request - By The Bay.wav" WAVE
  TRACK 10 AUDIO
    TITLE "By The Bay"
    PERFORMER "Answer Code Request"
    ISRC DELG71400605
    INDEX 01 00:00:00
FILE "1-11. Answer Code Request feat. Elizabeth Bernholz - Axif.wav" WAVE
  TRACK 11 AUDIO
    TITLE "Axif"
    PERFORMER "Answer Code Request feat. Elizabeth Bernholz"
    ISRC DELG71400606
    INDEX 01 00:00:00
FILE "1-12. Answer Code Request - Thermal Capacity.wav" WAVE
  TRACK 12 AUDIO
    TITLE "Thermal Capacity"
    PERFORMER "Answer Code Request"
    ISRC DELG71400607
    INDEX 01 00:00:00

Этот торрент недоступен для скачивания без регистрации, однако доступен по публичной magnet-ссылке (источники с публичных трекеров). Перед использованием ссылки прочтите, пожалуйста Пользовательское соглашение, а также как можно дольше оставайтесь на раздаче! Для того, чтобы скачать сам торрент-файл (который видит больше источников), а также для того, чтобы поблагодарить релизера, вам необходимо зарегистрироваться. Если регистрироваться лень - вы можете также попробовать скачать релиз по нашим партнерским ссылкам ниже. Кроме того, зарегистрированным пользователям не показывается всплывающая реклама при скачивании.

[underverse.su].t74344.torrent
Трекер: Зарегистрирован   [ 24.11.2016 17:26 ]  

Статус: проверено (by Бишеп at 24.11.2016 17:26)
Поблагодарили: 1 человек
Тип торрента: публичный - доступные источники с открытых трекеров: 
Размер: 285 MB (занимает 0,06 DVDR, для записи нужно 1 болванка DVDR/RW)
 
 
Похожие темы
Форум Тема Автор Торрент Отв. Посл. сооб.
Зарубежный Hard, Progressive, Soft, Melodic, AOR, Folk, Classic Rock (Experimental Progressive Rock) LEF (Lorenzo Esposito Fornasari) - Hypersomniac (2017) [MP3, 320 kbps CBR] Darkferse
3 | 1

0 | 311

1

17.12.2017 20:32

Зарубежный Black, Death, Heavy, Thrash, Power, Folk, Gothic Metal (Experimental Metal, Technical Metal, Progressive Metal) Drehg - The Wolf You Feed (2017) [MP3, 320 kbps CBR] Darkferse
1 | 0

0 | 456

1

01.09.2017 19:03

Зарубежный Black, Death, Heavy, Thrash, Power, Folk, Gothic Metal (Experimental Metal, Psychedelic Rock) Cosmic Reef Temple - Age Of The Spaceborn (2017) [MP3, 320 kbps CBR] Darkferse
3 | 1

0 | 320

0

18.12.2017 23:22

Зарубежный Black, Death, Heavy, Thrash, Power, Folk, Gothic Metal (Experimental Metal, Technical Death Metal, Progressive Metal) Ketha - 0 Hours Starlight (2017) [MP3, 320 kbps CBR] Darkferse
1 | 0

0 | 372

2

22.12.2017 19:48

Зарубежный Black, Death, Heavy, Thrash, Power, Folk, Gothic Metal (Experimental Metal, Instrumental) Tetrachromat - Tetrachromat (2018) [MP3, 320 kbps CBR] Darkferse
2 | 0

0 | 246

2

13.01.2018 12:18

Зарубежный Punk, Hardcore, Grunge, Alternative (Experimental, Noise Rock) Oxbow - Thin Black Duke (2017) [MP3, 320 kbps CBR] Darkferse
6 | 0

0 | 523

1

01.05.2017 11:54

Отечественный Punk, Grunge, Alternative (Experimental, Psychedelic, Industrial, Post Punk) Project NT - Записки на Исподнем (2017) [MP3, 320 kbps CBR] Darkferse
7 | 0

0 | 175

1

21.12.2017 10:40

Techno (Experimental Techno, Ambient Techno) Andy Stott - Luxury Problems (2012) [MP3, 128 kbps] ANDRAKO
1 | 0

0 | 465

1

12.11.2016 08:19

Trip Hop, Abstract Hip Hop (Experimental, Hip-Hop, Jazz, Soul) Bastien Keb - 22.02.85 (2017) [MP3, 320 kbps CBR] Darkferse
1 | 1

0 | 696

2

25.03.2017 20:36

Experimental, Minimal, 8-bit (Experimental) Slugabed - Inherit The Earth (2017) [MP3, 320 kbps CBR] Darkferse
6 | 0

0 | 459

2

06.04.2017 16:19


Яндекс.Метрика powered by Sphinx


В Н И М А Н И Е
Сайт не распространяет и не хранит электронные версии произведений, а лишь бесплатно и без коммерческой выгоды (не требуя взамен платы,
SMS и т.д.) предоставляет доступ к создаваемому пользователями каталогу ссылок на торрент-файлы, которые содержат только списки хеш-сумм.
Убедительная просьба с жалобами обращаться напрямую к пользователю, разместившему торрент файл.

Вверх