Loading...
Error

(Contemporary Jazz, Progressive Rock) Soft Machine - Bundles (2012) [FLAC (Tracks+.Cue), Lossless]

Статистика раздачи
Размер:  552 MB   |    Зарегистрирован:  1 год 1 месяц   |    Скачан:  3 раза

Полного источника не было: 11 дней

Сидов:  0  |  0 KB/s  ]   Личеров:  0  |  0 KB/s  ]

* - сиды/пиры с внешних источников

   
 
Автор Сообщение

Бишеп Пол:Муж

24-Ноя-2016 12:48

Soft Machine - Bundles

Жанр: Contemporary Jazz, Progressive Rock
Год выпуска: 2012
Источник: CD
Производитель диска: Air Mail Archive - AIRAC-1667
Аудиокодек: FLAC
Тип рипа: Tracks+.CUE
Битрейт аудио: lossless
Продолжительность: 00:41:55


Треклист:
01. Hazard Profile Part 1 (9:18)
02. Part 2 (2:21)
03. Part 3 (1:05)
04. Part 4 (0:46)
05. Part 5 (5:29)
06. Gone Sailing (0:59)
07. Bundles (3:14)
08. Land Of The Bag Snake (3:35)
09. The Man Who Waved At Trains (1:50)
10. Peff (1:57)
11. Four Gongs Two Drums (4:09)
12. The Floating World (7:12)

Код:

Exact Audio Copy V1.0 beta 3 from 29. August 2011

EAC extraction logfile from 13. December 2014, 12:14

Soft Machine / Bundles

Used drive  : ATAPI   iHAS124   B   Adapter: 2  ID: 1

Read mode               : Secure
Utilize accurate stream : Yes
Defeat audio cache      : Yes
Make use of C2 pointers : No

Read offset correction                      : 6
Overread into Lead-In and Lead-Out          : No
Fill up missing offset samples with silence : Yes
Delete leading and trailing silent blocks   : No
Null samples used in CRC calculations       : Yes
Used interface                              : Native Win32 interface for Win NT & 2000
Gap handling                                : Appended to previous track

Used output format              : User Defined Encoder
Selected bitrate                : 1024 kBit/s
Quality                         : High
Add ID3 tag                     : No
Command line compressor         : C:\Program Files (x86)\FLAC Frontend\tools\flac.exe
Additional command line options : -8 -V -T "ARTIST=%artist%" -T "TITLE=%title%" -T "ALBUM=%albumtitle%" -T "DATE=%year%" -T "TRACKNUMBER=%tracknr%" -T "TOTALTRACKS=%numtracks%" -T "GENRE=%genre%" -T "ALBUMARTIST=%albumartist%" -T "ALBUM ARTIST=%albumartist%" -T "COMMENT=EAC Secure Mode, Test & Copy, AccurateRip, FLAC -8" %source%

TOC of the extracted CD

     Track |   Start  |  Length  | Start sector | End sector
    ---------------------------------------------------------
        1  |  0:00.00 |  9:19.12 |         0    |    41936   
        2  |  9:19.12 |  2:15.08 |     41937    |    52069   
        3  | 11:34.20 |  0:33.07 |     52070    |    54551   
        4  | 12:07.27 |  1:25.56 |     54552    |    60982   
        5  | 13:33.08 |  5:29.19 |     60983    |    85676   
        6  | 19:02.27 |  0:59.22 |     85677    |    90123   
        7  | 20:01.49 |  3:14.39 |     90124    |   104712   
        8  | 23:16.13 |  3:35.30 |    104713    |   120867   
        9  | 26:51.43 |  1:50.74 |    120868    |   129191   
       10  | 28:42.42 |  3:36.65 |    129192    |   145456   
       11  | 32:19.32 |  2:31.22 |    145457    |   156803   
       12  | 34:50.54 |  7:14.64 |    156804    |   189417   

Track  1

     Filename C:\Soft Machine - Bundles (1975) {2012 Japan Mini LP Blu-spec CD Remaster}\01 - Hazard Profile Part One.wav

     Pre-gap length  0:00:02.00

     Peak level 96.5 %
     Extraction speed 2.1 X
     Track quality 100.0 %
     Test CRC CF370386
     Copy CRC CF370386
     Accurately ripped (confidence 1)  [D05D02AA]  (AR v2)
     Copy OK

Track  2

     Filename C:\Soft Machine - Bundles (1975) {2012 Japan Mini LP Blu-spec CD Remaster}\02 - Hazard Profile Part Two (Toccatina).wav

     Peak level 48.7 %
     Extraction speed 1.2 X
     Track quality 99.9 %
     Test CRC B9CB252B
     Copy CRC B9CB252B
     Accurately ripped (confidence 1)  [5CF6AD19]  (AR v2)
     Copy OK

Track  3

     Filename C:\Soft Machine - Bundles (1975) {2012 Japan Mini LP Blu-spec CD Remaster}\03 - Hazard Profile Part Three.wav

     Peak level 71.7 %
     Extraction speed 1.2 X
     Track quality 100.0 %
     Test CRC 005292DC
     Copy CRC 005292DC
     Accurately ripped (confidence 1)  [CC7F3112]  (AR v2)
     Copy OK

Track  4

     Filename C:\Soft Machine - Bundles (1975) {2012 Japan Mini LP Blu-spec CD Remaster}\04 - Hazard Profile Part Four.wav

     Peak level 95.3 %
     Extraction speed 1.9 X
     Track quality 100.0 %
     Test CRC 3A982E0A
     Copy CRC 3A982E0A
     Accurately ripped (confidence 1)  [604F9650]  (AR v2)
     Copy OK

Track  5

     Filename C:\Soft Machine - Bundles (1975) {2012 Japan Mini LP Blu-spec CD Remaster}\05 - Hazard Profile Part Five.wav

     Peak level 96.0 %
     Extraction speed 2.6 X
     Track quality 100.0 %
     Test CRC 26355C09
     Copy CRC 26355C09
     Accurately ripped (confidence 1)  [914EE73C]  (AR v2)
     Copy OK

Track  6

     Filename C:\Soft Machine - Bundles (1975) {2012 Japan Mini LP Blu-spec CD Remaster}\06 - Gone Sailing.wav

     Peak level 70.4 %
     Extraction speed 1.8 X
     Track quality 100.0 %
     Test CRC E73F59DE
     Copy CRC E73F59DE
     Accurately ripped (confidence 1)  [5B86FC4B]  (AR v2)
     Copy OK

Track  7

     Filename C:\Soft Machine - Bundles (1975) {2012 Japan Mini LP Blu-spec CD Remaster}\07 - Bundles.wav

     Peak level 95.9 %
     Extraction speed 1.8 X
     Track quality 99.9 %
     Test CRC BF1C5B81
     Copy CRC BF1C5B81
     Accurately ripped (confidence 1)  [0BD559E5]  (AR v2)
     Copy OK

Track  8

     Filename C:\Soft Machine - Bundles (1975) {2012 Japan Mini LP Blu-spec CD Remaster}\08 - Land Of The Bag Snake.wav

     Peak level 95.8 %
     Extraction speed 2.7 X
     Track quality 100.0 %
     Test CRC F1294FE5
     Copy CRC F1294FE5
     Accurately ripped (confidence 1)  [E9961084]  (AR v2)
     Copy OK

Track  9

     Filename C:\Soft Machine - Bundles (1975) {2012 Japan Mini LP Blu-spec CD Remaster}\09 - The Man Who Waved At Trains.wav

     Peak level 91.0 %
     Extraction speed 2.5 X
     Track quality 100.0 %
     Test CRC 2C326DE3
     Copy CRC 2C326DE3
     Accurately ripped (confidence 1)  [874D6C80]  (AR v2)
     Copy OK

Track 10

     Filename C:\Soft Machine - Bundles (1975) {2012 Japan Mini LP Blu-spec CD Remaster}\10 - Peff.wav

     Peak level 96.3 %
     Extraction speed 2.9 X
     Track quality 100.0 %
     Test CRC 92F1D4A2
     Copy CRC 92F1D4A2
     Accurately ripped (confidence 1)  [C79E2A42]  (AR v2)
     Copy OK

Track 11

     Filename C:\Soft Machine - Bundles (1975) {2012 Japan Mini LP Blu-spec CD Remaster}\11 - Four Gongs Two Drums.wav

     Peak level 99.6 %
     Extraction speed 2.8 X
     Track quality 100.0 %
     Test CRC 1ABBA6EF
     Copy CRC 1ABBA6EF
     Accurately ripped (confidence 1)  [B451CC1C]  (AR v2)
     Copy OK

Track 12

     Filename C:\Soft Machine - Bundles (1975) {2012 Japan Mini LP Blu-spec CD Remaster}\12 - The Floating World.wav

     Peak level 45.7 %
     Extraction speed 3.4 X
     Track quality 100.0 %
     Test CRC 603DE5FB
     Copy CRC 603DE5FB
     Accurately ripped (confidence 1)  [3AD40982]  (AR v2)
     Copy OK

All tracks accurately ripped

No errors occurred

End of status report

==== Log checksum DB33CFEB78EF8C13A940E1F0E0C79CD96EB756186A5A0DB8C142ABB09AFF6360 ====

Код:

REM GENRE Rock
REM DATE 1975 (2012)
REM DISCID 9D09DD0C
REM COMMENT "ExactAudioCopy v1.0b3"
PERFORMER "Soft Machine"
TITLE "Bundles"
FILE "01 - Hazard Profile Part One.wav" WAVE
  TRACK 01 AUDIO
    TITLE "Hazard Profile Part One"
    PERFORMER "Soft Machine"
    INDEX 01 00:00:00
FILE "02 - Hazard Profile Part Two (Toccatina).wav" WAVE
  TRACK 02 AUDIO
    TITLE "Hazard Profile Part Two (Toccatina)"
    PERFORMER "Soft Machine"
    INDEX 01 00:00:00
FILE "03 - Hazard Profile Part Three.wav" WAVE
  TRACK 03 AUDIO
    TITLE "Hazard Profile Part Three"
    PERFORMER "Soft Machine"
    INDEX 01 00:00:00
FILE "04 - Hazard Profile Part Four.wav" WAVE
  TRACK 04 AUDIO
    TITLE "Hazard Profile Part Four"
    PERFORMER "Soft Machine"
    INDEX 01 00:00:00
FILE "05 - Hazard Profile Part Five.wav" WAVE
  TRACK 05 AUDIO
    TITLE "Hazard Profile Part Five"
    PERFORMER "Soft Machine"
    INDEX 01 00:00:00
FILE "06 - Gone Sailing.wav" WAVE
  TRACK 06 AUDIO
    TITLE "Gone Sailing"
    PERFORMER "Soft Machine"
    INDEX 01 00:00:00
FILE "07 - Bundles.wav" WAVE
  TRACK 07 AUDIO
    TITLE "Bundles"
    PERFORMER "Soft Machine"
    INDEX 01 00:00:00
FILE "08 - Land Of The Bag Snake.wav" WAVE
  TRACK 08 AUDIO
    TITLE "Land Of The Bag Snake"
    PERFORMER "Soft Machine"
    INDEX 01 00:00:00
FILE "09 - The Man Who Waved At Trains.wav" WAVE
  TRACK 09 AUDIO
    TITLE "The Man Who Waved At Trains"
    PERFORMER "Soft Machine"
    INDEX 01 00:00:00
FILE "10 - Peff.wav" WAVE
  TRACK 10 AUDIO
    TITLE "Peff"
    PERFORMER "Soft Machine"
    INDEX 01 00:00:00
FILE "11 - Four Gongs Two Drums.wav" WAVE
  TRACK 11 AUDIO
    TITLE "Four Gongs Two Drums"
    PERFORMER "Soft Machine"
    INDEX 01 00:00:00
FILE "12 - The Floating World.wav" WAVE
  TRACK 12 AUDIO
    TITLE "The Floating World"
    PERFORMER "Soft Machine"
    INDEX 01 00:00:00

Этот торрент недоступен для скачивания без регистрации, однако доступен по публичной magnet-ссылке (источники с публичных трекеров). Перед использованием ссылки прочтите, пожалуйста Пользовательское соглашение, а также как можно дольше оставайтесь на раздаче! Для того, чтобы скачать сам торрент-файл (который видит больше источников), а также для того, чтобы поблагодарить релизера, вам необходимо зарегистрироваться. Если регистрироваться лень - вы можете также попробовать скачать релиз по нашим партнерским ссылкам ниже. Кроме того, зарегистрированным пользователям не показывается всплывающая реклама при скачивании.

[underverse.su].t74323.torrent
Трекер: Зарегистрирован   [ 24.11.2016 12:48 ]  

Статус: проверено (by Бишеп at 24.11.2016 12:48)
Поблагодарили: 1 человек
Тип торрента: публичный - доступные источники с открытых трекеров: 
Размер: 552 MB (занимает 0,12 DVDR, для записи нужно 1 болванка DVDR/RW)
 
 
Похожие темы
Форум Тема Автор Торрент Отв. Посл. сооб.
Jazz (Contemporary Jazz) Dock In Absolute - Dock In Absolute (2017) [MP3, 320 kbps CBR] Darkferse
3 | 0

0 | 447

1

23.05.2017 08:30

Jazz (Contemporary Jazz, Soul, Hip Hop) Alfa Mist - Antiphon (2017) [MP3, 320 kbps CBR] Darkferse
39 | 1

0 | 543

1

17.05.2017 10:15

Jazz (Contemporary Jazz, Vocal Jazz, Modern Creative) Theo Bleckmann - Elegy (2017) [MP3, 320 kbps CBR] Darkferse
1 | 0

0 | 406

2

26.05.2017 14:13

Jazz (Contemporary Jazz) Kyoto Jazz Sextet - Unity (2017) [MP3, 320 kbps CBR] Darkferse
1 | 0

0 | 306

1

17.06.2017 12:04

Jazz (Contemporary Jazz) Verneri Pohjola - Pekka (2017) [MP3, 320 kbps CBR] Darkferse
2 | 0

0 | 328

1

17.06.2017 12:11

Jazz (Contemporary Jazz) Denys Baptiste - The Late Trane (2017) [MP3, 320 kbps CBR] Darkferse
1 | 1

0 | 194

1

20.06.2017 20:39

Jazz (Contemporary Jazz) Lucia Ianniello - Live At Acuto Jazz (2017) [MP3, 320 kbps CBR] Darkferse
3 | 0

0 | 68

1

12.12.2017 09:48

Jazz (Contemporary Jazz, Free Improvisation) Markus Stockhausen - Far into the Stars (2017) [MP3, 320 kbps CBR] Darkferse
1 | 1

0 | 495

2

27.08.2017 06:39

Jazz (Contemporary Jazz, Classical Crossover, Violin) Naoko Terai - The Standard (2017) [MP3, 320 kbps CBR] Darkferse
11 | 1

0 | 174

1

01.01.2018 22:22

Jazz (Contemporary Jazz, Fusion) Josiah Woodson - Suite Elemental (2017) [MP3, 320 kbps CBR] Darkferse
1 | 2

0 | 54

0

02.01.2018 10:24


Яндекс.Метрика powered by Sphinx


В Н И М А Н И Е
Сайт не распространяет и не хранит электронные версии произведений, а лишь бесплатно и без коммерческой выгоды (не требуя взамен платы,
SMS и т.д.) предоставляет доступ к создаваемому пользователями каталогу ссылок на торрент-файлы, которые содержат только списки хеш-сумм.
Убедительная просьба с жалобами обращаться напрямую к пользователю, разместившему торрент файл.

Вверх