Loading...
Error

(R'n'B, Pop, Soul) Emeli Sande (Sande) - Our Version Of Events: Live At The Royal Albert Hall (2013) [FLAC (Image+.Cue), Lossless]

Статистика раздачи
Размер:  555 MB   |    Зарегистрирован:  1 год   |    Скачан:  1 раз

Полного источника не было: 11 дней

Сидов:  0  |  0 KB/s  ]   Личеров:  0  |  0 KB/s  ]

* - сиды/пиры с внешних источников

   
 
Автор Сообщение

Бишеп Пол:Муж

20-Ноя-2016 14:17

Emeli Sande (Sande) - Our Version Of Events: Live At The Royal Albert Hall

Жанр: R'n'B, Pop, Soul
Год выпуска: 2013
Источник: CD
Производитель диска: Virgin Records Ltd. - 5099972377628
Аудиокодек: FLAC
Тип рипа: Image+.CUE
Битрейт аудио: lossless
Продолжительность: 01:14:56


Треклист:
01. Daddy (4:35)
02. Where I sleep (3:40)
03. Breaking the law (4:19)
04. Enough (3:47)
05. My kind of love (5:19)
06. Clown (3:58)
07. River (4:43)
08. I wish I knew how it would feel to be free (4:00)
09. Suitcase (3:47)
10. Read all about it (Pt. III) (with Professor Green) (6:38)
11. Wonder (5:36)
12. Mountains (5:42)
13. Heaven (6:29)
14. Beneath your beautiful (with Labrinth) (4:35)
15. Maybe (3:57)
16. Next to me (3:51)

Код:

Exact Audio Copy V1.0 beta 3 from 29. August 2011

EAC extraction logfile from 23. February 2013, 10:49

Emeli Sandé / Our version of events - Live at Royal Albert Hall

Used drive  : HL-DT-STDVDRAM GSA-H42N   Adapter: 0  ID: 0

Read mode               : Secure
Utilize accurate stream : Yes
Defeat audio cache      : Yes
Make use of C2 pointers : No

Read offset correction                      : 667
Overread into Lead-In and Lead-Out          : No
Fill up missing offset samples with silence : Yes
Delete leading and trailing silent blocks   : No
Null samples used in CRC calculations       : Yes
Used interface                              : Native Win32 interface for Win NT & 2000

Used output format              : User Defined Encoder
Selected bitrate                : 1024 kBit/s
Quality                         : High
Add ID3 tag                     : No
Command line compressor         : C:\Program Files\Exact Audio Copy\FLAC\FLAC.EXE
Additional command line options : -8 -V -T "ARTIST=%artist%" -T "TITLE=%title%" -T "ALBUM=%albumtitle%" -T "DATE=%year%" -T "TRACKNUMBER=%tracknr%" -T "GENRE=%genre%" -T "COMMENT=%comment%" -T "BAND=%albuminterpret%" -T "ALBUMARTIST=%albuminterpret%" -T "DISCNUMBER=%cdnumber%" -T "TOTALTRACKS=%numtracks%" %source% -o %dest%

TOC of the extracted CD

     Track |   Start  |  Length  | Start sector | End sector
    ---------------------------------------------------------
        1  |  0:00.00 |  4:34.73 |         0    |    20622   
        2  |  4:34.73 |  3:40.20 |     20623    |    37142   
        3  |  8:15.18 |  4:19.07 |     37143    |    56574   
        4  | 12:34.25 |  3:46.69 |     56575    |    73593   
        5  | 16:21.19 |  5:18.38 |     73594    |    97481   
        6  | 21:39.57 |  3:57.70 |     97482    |   115326   
        7  | 25:37.52 |  4:42.50 |    115327    |   136526   
        8  | 30:20.27 |  3:59.40 |    136527    |   154491   
        9  | 34:19.67 |  3:47.26 |    154492    |   171542   
       10  | 38:07.18 |  6:38.06 |    171543    |   201398   
       11  | 44:45.24 |  5:36.34 |    201399    |   226632   
       12  | 50:21.58 |  5:42.04 |    226633    |   252286   
       13  | 56:03.62 |  6:29.13 |    252287    |   281474   
       14  | 62:33.00 |  4:34.53 |    281475    |   302077   
       15  | 67:07.53 |  3:57.27 |    302078    |   319879   
       16  | 71:05.05 |  3:50.48 |    319880    |   337177   

Range status and errors

Selected range

     Filename D:\Convert\rip-flacmusic.ru\Emeli Sande - Our version of events - Live at Royal Albert Hall.wav

     Peak level 100.0 %
     Extraction speed 7.2 X
     Range quality 100.0 %
     Test CRC 677B0BEF
     Copy CRC 677B0BEF
     Copy OK

No errors occurred

 
AccurateRip summary
 
Track  1  not present in database
Track  2  not present in database
Track  3  not present in database
Track  4  not present in database
Track  5  not present in database
Track  6  not present in database
Track  7  not present in database
Track  8  not present in database
Track  9  not present in database
Track 10  not present in database
Track 11  not present in database
Track 12  not present in database
Track 13  not present in database
Track 14  not present in database
Track 15  not present in database
Track 16  not present in database
 
None of the tracks are present in the AccurateRip database

End of status report

Код:

REM GENRE Soul
REM DATE 2013
REM DISCID F3118F10
REM COMMENT "ExactAudioCopy v1.0b3"
PERFORMER "Emeli Sande"
TITLE "Our version of events - Live at Royal Albert Hall"
FILE "Emeli Sande - Our version of events - Live at Royal Albert Hall.flac" WAVE
  TRACK 01 AUDIO
    TITLE "Daddy"
    PERFORMER "Emeli Sande"
    INDEX 01 00:00:00
  TRACK 02 AUDIO
    TITLE "Where I sleep"
    PERFORMER "Emeli Sande"
    INDEX 01 04:34:73
  TRACK 03 AUDIO
    TITLE "Breaking the law"
    PERFORMER "Emeli Sande"
    INDEX 01 08:15:18
  TRACK 04 AUDIO
    TITLE "Enough"
    PERFORMER "Emeli Sande"
    INDEX 01 12:34:25
  TRACK 05 AUDIO
    TITLE "My kind of love"
    PERFORMER "Emeli Sande"
    INDEX 01 16:21:19
  TRACK 06 AUDIO
    TITLE "Clown"
    PERFORMER "Emeli Sande"
    INDEX 01 21:39:57
  TRACK 07 AUDIO
    TITLE "River"
    PERFORMER "Emeli Sande"
    INDEX 01 25:37:52
  TRACK 08 AUDIO
    TITLE "I wish I knew how it would feel to be free"
    PERFORMER "Emeli Sande"
    INDEX 01 30:20:27
  TRACK 09 AUDIO
    TITLE "Suitcase"
    PERFORMER "Emeli Sande"
    INDEX 01 34:19:67
  TRACK 10 AUDIO
    TITLE "Read all about it (Pt. III) (with Professor Green)"
    PERFORMER "Emeli Sande"
    INDEX 01 38:07:18
  TRACK 11 AUDIO
    TITLE "Wonder"
    PERFORMER "Emeli Sande"
    INDEX 01 44:45:24
  TRACK 12 AUDIO
    TITLE "Mountains"
    PERFORMER "Emeli Sande"
    INDEX 01 50:21:58
  TRACK 13 AUDIO
    TITLE "Heaven"
    PERFORMER "Emeli Sande"
    INDEX 01 56:03:62
  TRACK 14 AUDIO
    TITLE "Beneath your beautiful (with Labrinth)"
    PERFORMER "Emeli Sande"
    INDEX 01 62:33:00
  TRACK 15 AUDIO
    TITLE "Maybe"
    PERFORMER "Emeli Sande"
    INDEX 01 67:07:53
  TRACK 16 AUDIO
    TITLE "Next to me"
    PERFORMER "Emeli Sande"
    INDEX 01 71:05:05

Этот торрент недоступен для скачивания без регистрации, однако доступен по публичной magnet-ссылке (источники с публичных трекеров). Перед использованием ссылки прочтите, пожалуйста Пользовательское соглашение, а также как можно дольше оставайтесь на раздаче! Для того, чтобы скачать сам торрент-файл (который видит больше источников), а также для того, чтобы поблагодарить релизера, вам необходимо зарегистрироваться. Если регистрироваться лень - вы можете также попробовать скачать релиз по нашим партнерским ссылкам ниже.

[underverse.su].t74121.torrent
Трекер: Зарегистрирован   [ 20.11.2016 14:17 ]  

Статус: проверено (by Бишеп at 20.11.2016 14:17)
Поблагодарили: пока никто не поблагодарил...
Тип торрента: публичный - доступные источники с открытых трекеров: 
Размер: 555 MB (занимает 0,12 DVDR, для записи нужно 1 болванка DVDR/RW)
 
 
Похожие темы
Форум Тема Автор Торрент Отв. Посл. сооб.
Зарубежный R'n'B (Lossless) (R'n'B, Pop, Soul) Emeli Sande - Our Version of Events (2012) [FLAC (Tracks+.Cue), Lossless] Бишеп
5 | 18

0 | 462

1

07.11.2016 17:07

Зарубежный R'n'B (Lossless) (R'n'B, Pop, Soul) Bruno Mars - Unorthodox Jukebox (Target Deluxe Edition) (2012) [FLAC (Tracks+.Cue), lossless] Бишеп
6 | 3

0 | 785

2

07.11.2016 16:59

Зарубежный R'n'B (Lossless) (R'n'B, Pop) Bruno Mars - Doo-Wops & Hooligans (2010) [FLAC (Tracks+.CUE), Lossless] Бишеп
3 | 0

0 | 2139

5

04.11.2013 10:53

Зарубежный R'n'B (Lossless) (R'n'B, Pop, Hip Hop) Nelly Furtado - The Best Of (Deluxe Edition 2CD) (2010) [FLAC (Image+.CUE), Lossless] Бишеп
9 | 2

0 | 1971

5

08.01.2014 14:03

Зарубежный R'n'B (Lossless) (R'n'B, Pop, Soul) Sam Smith - In The Lonely Hour (Target Deluxe Edition) (2014) [FLAC (Tracks+.CUE), Lossless] Бишеп
7 | 6

0 | 1601

4

27.10.2014 20:17

Зарубежный R'n'B (Lossless) (R'n'B, Pop) Naughty Boy feat. Sam Smith - La La La (Promo CD) (2013) [FLAC (Image+.CUE), Lossless] Бишеп
2 | 0

0 | 802

2

07.02.2015 07:09

Зарубежный R'n'B (Lossless) (R'n'B, Pop) Fifth Harmony - 7/27 (Deluxe Edition) (2016) [FLAC (Tracks), Lossless] Web Бишеп
1 | 5

0 | 710

1

03.11.2016 05:56

Зарубежный R'n'B (Lossless) (R'n'B, Pop) Fifth Harmony - Reflection (Deluxe Edition) (2015) [FLAC (Tracks+.Cue), Lossless] Бишеп
7 | 3

0 | 648

2

03.11.2016 05:48

Зарубежный R'n'B (Lossless) (R'n'B, Pop, Soul) Emeli Sande - Long Live The Angels (2016) [FLAC (Image+.Cue), Lossless] Бишеп
1 | 0

0 | 750

1

17.11.2016 04:42

* Архив (R'n'B, Pop) Ради Славы - Будем счастливыми (2008) [MP3, CBR 320 kbps] EugeneShad

2 | 1336

30.08.2010 01:31


Яндекс.Метрика powered by Sphinx


В Н И М А Н И Е
Сайт не распространяет и не хранит электронные версии произведений, а лишь бесплатно и без коммерческой выгоды (не требуя взамен платы,
SMS и т.д.) предоставляет доступ к создаваемому пользователями каталогу ссылок на торрент-файлы, которые содержат только списки хеш-сумм.
Убедительная просьба с жалобами обращаться напрямую к пользователю, разместившему торрент файл.

Вверх