Loading...
Error

(Pop) VA - LG Life's Good. Желания исполняются! - Новогодние песни (2010) [FLAC (Tracks+.Cue), Lossless]

Статистика раздачи
Размер:  359 MB   |    Зарегистрирован:  10 месяцев   |    Скачан:  4 раза

Полного источника не было: 6 месяцев

Сидов:  0  |  0 KB/s  ]   Личеров:  0  |  0 KB/s  ]

* - сиды/пиры с внешних источников

   
 
Автор Сообщение

Бишеп Пол:Муж

18-Ноя-2016 17:16

VA - LG Life's Good. Желания исполняются! - Новогодние песни

Жанр: Pop
Год выпуска: 2010
Источник: CD
Производитель диска: ПК Монолит
Аудиокодек: FLAC
Тип рипа: Tracks+.CUE
Битрейт аудио: lossless
Продолжительность: 00:51:06


Треклист:
01. Дискотека Авария - Новогодняя (4:28)
02. Верка Сердючка - Новогодняя (2:26)
03. Анита Цой - Новогодние игрушки (3:43)
04. Валерий Меладзе - Ночь накануне Рождества (4:58)
05. Гр. 'Сказка' - Это новый год (3:52)
06. Потап и Настя Каменских - Новый год (3:02)
07. Блестящие - Новогодняя песня (4:11)
08. Глюк'oza - Снег (3:58)
09. Пьер Нарцисс, Кукарская Елена Сергеевна (Кука) - Холодно (3:24)
10. Гр. 'Reflex' - Это Новый год (3:22)
11. Happy Sovok - С настапающим (3:34)
12. 23:45 & 5ivesta - Новый год (2:56)
13. Neoclubber - Новогодняя (3:48)
14. Зануда feat. Пес (Легенды Про) & Тато - Мандарины (3:24)

Код:

Exact Audio Copy V1.0 beta 2 from 29. April 2011

EAC extraction logfile from 8. August 2011, 22:31

Various Artists / LG Life's Good: Желания исполняются!

Used drive  : PIONEER DVD-RW  DVR-215D   Adapter: 2  ID: 0

Read mode               : Secure
Utilize accurate stream : Yes
Defeat audio cache      : Yes
Make use of C2 pointers : No

Read offset correction                      : 48
Overread into Lead-In and Lead-Out          : No
Fill up missing offset samples with silence : Yes
Delete leading and trailing silent blocks   : No
Null samples used in CRC calculations       : Yes
Used interface                              : Native Win32 interface for Win NT & 2000
Gap handling                                : Appended to previous track

Used output format              : User Defined Encoder
Selected bitrate                : 1024 kBit/s
Quality                         : High
Add ID3 tag                     : No
Command line compressor         : C:\Program Files\FLAC\flac.exe
Additional command line options : -8 -V -T "ARTIST=%artist%" -T "TITLE=%title%" -T "ALBUM=%albumtitle%" -T "DATE=%year%" -T "TRACKNUMBER=%tracknr%" -T "TOTALTRACKS=%numtracks%" -T "GENRE=%genre%" -T "ALBUMARTIST=%albumartist%" -T "ALBUM ARTIST=%albumartist%

TOC of the extracted CD

     Track |   Start  |  Length  | Start sector | End sector
    ---------------------------------------------------------
        1  |  0:00.00 |  4:28.25 |         0    |    20124   
        2  |  4:28.25 |  2:26.31 |     20125    |    31105   
        3  |  6:54.56 |  3:42.45 |     31106    |    47800   
        4  | 10:37.26 |  4:57.67 |     47801    |    70142   
        5  | 15:35.18 |  3:51.66 |     70143    |    87533   
        6  | 19:27.09 |  3:02.24 |     87534    |   101207   
        7  | 22:29.33 |  4:11.13 |    101208    |   120045   
        8  | 26:40.46 |  3:57.69 |    120046    |   137889   
        9  | 30:38.40 |  3:24.08 |    137890    |   153197   
       10  | 34:02.48 |  3:22.03 |    153198    |   168350   
       11  | 37:24.51 |  3:33.47 |    168351    |   184372   
       12  | 40:58.23 |  2:56.02 |    184373    |   197574   
       13  | 43:54.25 |  3:48.30 |    197575    |   214704   
       14  | 47:42.55 |  3:23.38 |    214705    |   229967   

Track  1

     Filename C:\New York for *другой трекер* (08.08.2011)\01 - Дискотека Авария - Новогодняя.wav

     Pre-gap length  0:00:02.00

     Peak level 95.3 %
     Extraction speed 4.5 X
     Track quality 100.0 %
     Test CRC 84BA820D
     Copy CRC 84BA820D
     Track not present in AccurateRip database
     Copy OK

Track  2

     Filename C:\New York for *другой трекер* (08.08.2011)\02 - Верка Сердючка - Новогодняя.wav

     Pre-gap length  0:00:02.00

     Peak level 95.3 %
     Extraction speed 3.7 X
     Track quality 99.9 %
     Test CRC 15DCC9A1
     Copy CRC 15DCC9A1
     Track not present in AccurateRip database
     Copy OK

Track  3

     Filename C:\New York for *другой трекер* (08.08.2011)\03 - Анита Цой - Новогодние игрушки.wav

     Pre-gap length  0:00:02.00

     Peak level 97.1 %
     Extraction speed 5.1 X
     Track quality 100.0 %
     Test CRC F4218055
     Copy CRC F4218055
     Track not present in AccurateRip database
     Copy OK

Track  4

     Filename C:\New York for *другой трекер* (08.08.2011)\04 - Валерий Меладзе - Ночь накануне Рождества.wav

     Pre-gap length  0:00:02.00

     Peak level 96.9 %
     Extraction speed 5.7 X
     Track quality 100.0 %
     Test CRC 8A4DBCDA
     Copy CRC 8A4DBCDA
     Track not present in AccurateRip database
     Copy OK

Track  5

     Filename C:\New York for *другой трекер* (08.08.2011)\05 - Гр. ''Сказка'' - Это новый год.wav

     Pre-gap length  0:00:02.00

     Peak level 100.0 %
     Extraction speed 6.0 X
     Track quality 100.0 %
     Test CRC 17271E03
     Copy CRC 17271E03
     Track not present in AccurateRip database
     Copy OK

Track  6

     Filename C:\New York for *другой трекер* (08.08.2011)\06 - Потап и Настя Каменских - Новый год.wav

     Pre-gap length  0:00:02.00

     Peak level 81.3 %
     Extraction speed 6.0 X
     Track quality 100.0 %
     Test CRC 95CB8465
     Copy CRC 95CB8465
     Track not present in AccurateRip database
     Copy OK

Track  7

     Filename C:\New York for *другой трекер* (08.08.2011)\07 - Блестящие - Новогодняя песня.wav

     Pre-gap length  0:00:02.00

     Peak level 95.3 %
     Extraction speed 6.6 X
     Track quality 100.0 %
     Test CRC FA371F22
     Copy CRC FA371F22
     Track not present in AccurateRip database
     Copy OK

Track  8

     Filename C:\New York for *другой трекер* (08.08.2011)\08 - Глюк'oza - Снег.wav

     Pre-gap length  0:00:02.00

     Peak level 96.8 %
     Extraction speed 6.8 X
     Track quality 100.0 %
     Test CRC 8F3C154C
     Copy CRC 8F3C154C
     Track not present in AccurateRip database
     Copy OK

Track  9

     Filename C:\New York for *другой трекер* (08.08.2011)\09 - Пьер Нарцисс, Кукарская Елена Сергеевна (Кука) - Холодно.wav

     Pre-gap length  0:00:02.00

     Peak level 95.7 %
     Extraction speed 6.9 X
     Track quality 100.0 %
     Test CRC 450D4EEA
     Copy CRC 450D4EEA
     Track not present in AccurateRip database
     Copy OK

Track 10

     Filename C:\New York for *другой трекер* (08.08.2011)\10 - Гр. ''Reflex'' - Это Новый год.wav

     Pre-gap length  0:00:02.00

     Peak level 96.7 %
     Extraction speed 7.1 X
     Track quality 100.0 %
     Test CRC 57E1FCFE
     Copy CRC 57E1FCFE
     Track not present in AccurateRip database
     Copy OK

Track 11

     Filename C:\New York for *другой трекер* (08.08.2011)\11 - Happy Sovok - С настапающим.wav

     Pre-gap length  0:00:02.00

     Peak level 89.9 %
     Extraction speed 7.4 X
     Track quality 100.0 %
     Test CRC 5DC0CDC9
     Copy CRC 5DC0CDC9
     Track not present in AccurateRip database
     Copy OK

Track 12

     Filename C:\New York for *другой трекер* (08.08.2011)\12 - 23-45 & 5ivesta - Новый год.wav

     Pre-gap length  0:00:02.00

     Peak level 93.8 %
     Extraction speed 7.3 X
     Track quality 100.0 %
     Test CRC 554EBFC1
     Copy CRC 554EBFC1
     Track not present in AccurateRip database
     Copy OK

Track 13

     Filename C:\New York for *другой трекер* (08.08.2011)\13 - Neoclubber - Новогодняя.wav

     Pre-gap length  0:00:02.00

     Peak level 79.0 %
     Extraction speed 6.4 X
     Track quality 99.9 %
     Test CRC 9DF8E674
     Copy CRC 9DF8E674
     Track not present in AccurateRip database
     Copy OK

Track 14

     Filename C:\New York for *другой трекер* (08.08.2011)\14 - Зануда feat. Пес (Легенды Про) & Тато - Мандарины.wav

     Pre-gap length  0:00:02.00

     Peak level 82.0 %
     Extraction speed 6.8 X
     Track quality 99.9 %
     Test CRC 003EF569
     Copy CRC 003EF569
     Track not present in AccurateRip database
     Copy OK

None of the tracks are present in the AccurateRip database

No errors occurred

End of status report

==== Log checksum 00B4A78856BFAE6375384D6B4E3AF9EAC4C89830D2B5D044BC6A55A66B6EDA8B ====

Код:

REM GENRE Pop
REM DATE 2010
REM DISCID B50BFA0E
REM COMMENT "ExactAudioCopy v1.0b2"
PERFORMER "Various Artists"
TITLE "LG Life's Good: Желания исполняются!"
FILE "01 - Дискотека Авария - Новогодняя.wav" WAVE
  TRACK 01 AUDIO
    TITLE "Новогодняя"
    PERFORMER "Дискотека Авария"
    INDEX 01 00:00:00
  TRACK 02 AUDIO
    TITLE "Новогодняя"
    PERFORMER "Верка Сердючка"
    INDEX 00 04:26:25
FILE "02 - Верка Сердючка - Новогодняя.wav" WAVE
    INDEX 01 00:00:00
  TRACK 03 AUDIO
    TITLE "Новогодние игрушки"
    PERFORMER "Анита Цой"
    INDEX 00 02:24:31
FILE "03 - Анита Цой - Новогодние игрушки.wav" WAVE
    INDEX 01 00:00:00
  TRACK 04 AUDIO
    TITLE "Ночь накануне Рождества"
    PERFORMER "Валерий Меладзе"
    INDEX 00 03:40:45
FILE "04 - Валерий Меладзе - Ночь накануне Рождества.wav" WAVE
    INDEX 01 00:00:00
  TRACK 05 AUDIO
    TITLE "Это новый год"
    PERFORMER "Гр. 'Сказка'"
    INDEX 00 04:55:67
FILE "05 - Гр. ''Сказка'' - Это новый год.wav" WAVE
    INDEX 01 00:00:00
  TRACK 06 AUDIO
    TITLE "Новый год"
    PERFORMER "Потап и Настя Каменских"
    INDEX 00 03:49:66
FILE "06 - Потап и Настя Каменских - Новый год.wav" WAVE
    INDEX 01 00:00:00
  TRACK 07 AUDIO
    TITLE "Новогодняя песня"
    PERFORMER "Блестящие"
    INDEX 00 03:00:24
FILE "07 - Блестящие - Новогодняя песня.wav" WAVE
    INDEX 01 00:00:00
  TRACK 08 AUDIO
    TITLE "Снег"
    PERFORMER "Глюк'oza"
    INDEX 00 04:09:13
FILE "08 - Глюк'oza - Снег.wav" WAVE
    INDEX 01 00:00:00
  TRACK 09 AUDIO
    TITLE "Холодно"
    PERFORMER "Пьер Нарцисс, Кукарская Елена Сергеевна (Кука)"
    INDEX 00 03:55:69
FILE "09 - Пьер Нарцисс, Кукарская Елена Сергеевна (Кука) - Холодно.wav" WAVE
    INDEX 01 00:00:00
  TRACK 10 AUDIO
    TITLE "Это Новый год"
    PERFORMER "Гр. 'Reflex'"
    INDEX 00 03:22:08
FILE "10 - Гр. ''Reflex'' - Это Новый год.wav" WAVE
    INDEX 01 00:00:00
  TRACK 11 AUDIO
    TITLE "С настапающим"
    PERFORMER "Happy Sovok"
    INDEX 00 03:20:03
FILE "11 - Happy Sovok - С настапающим.wav" WAVE
    INDEX 01 00:00:00
  TRACK 12 AUDIO
    TITLE "Новый год"
    PERFORMER "23:45 & 5ivesta"
    INDEX 00 03:31:47
FILE "12 - 23-45 & 5ivesta - Новый год.wav" WAVE
    INDEX 01 00:00:00
  TRACK 13 AUDIO
    TITLE "Новогодняя"
    PERFORMER "Neoclubber"
    INDEX 00 02:54:02
FILE "13 - Neoclubber - Новогодняя.wav" WAVE
    INDEX 01 00:00:00
  TRACK 14 AUDIO
    TITLE "Мандарины"
    PERFORMER "Зануда feat. Пес (Легенды Про) & Тато"
    INDEX 00 03:46:30
FILE "14 - Зануда feat. Пес (Легенды Про) & Тато - Мандарины.wav" WAVE
    INDEX 01 00:00:00

Код:

AUDIOCHECKER v2.0 beta (build 457) - by Dester - opdester@freemail.hu
~~~~~~~~~~~~~~~~~~~~~~~~~~~~~~~~~~
-=== DO NOT EDIT THIS FILE! ===-

Path: ...\New York for *другой трекер* (08.08.2011)

01 -=- 01 - Дискотека Авария - Новогодняя.flac -=- CDDA (100%)
02 -=- 02 - Верка Сердючка - Новогодняя.flac -=- CDDA (100%)
03 -=- 03 - Анита Цой - Новогодние игрушки.flac -=- CDDA (100%)
04 -=- 04 - Валерий Меладзе - Ночь накануне Рождества.flac -=- CDDA (100%)
05 -=- 05 - Гр. ''Сказка'' - Это новый год.flac -=- CDDA (99%)
06 -=- 06 - Потап и Настя Каменских - Новый год.flac -=- CDDA (100%)
07 -=- 07 - Блестящие - Новогодняя песня.flac -=- CDDA (100%)
08 -=- 08 - Глюк'oza - Снег.flac -=- CDDA (100%)
09 -=- 09 - Пьер Нарцисс, Кукарская Елена Сергеевна (Кука) - Холодно.flac -=- CDDA (100%)
10 -=- 10 - Гр. ''Reflex'' - Это Новый год.flac -=- CDDA (100%)
11 -=- 11 - Happy Sovok - С настапающим.flac -=- CDDA (100%)
12 -=- 12 - 23-45 & 5ivesta - Новый год.flac -=- CDDA (99%)
13 -=- 13 - Neoclubber - Новогодняя.flac -=- CDDA (100%)
14 -=- 14 - Зануда feat. Пес (Легенды Про) & Тато - Мандарины.flac -=- CDDA (100%)

Summary 99,86% CDDA

88994276

Этот торрент недоступен для скачивания без регистрации, однако доступен по публичной magnet-ссылке (источники с публичных трекеров). Перед использованием ссылки прочтите, пожалуйста Пользовательское соглашение, а также как можно дольше оставайтесь на раздаче! Для того, чтобы скачать сам торрент-файл (который видит больше источников), а также для того, чтобы поблагодарить релизера, вам необходимо зарегистрироваться. Если регистрироваться лень - вы можете также попробовать скачать релиз по нашим партнерским ссылкам ниже.

[underverse.su].t73942.torrent
Трекер: Зарегистрирован   [ 18.11.2016 17:16 ]  

Статус: проверено (by Бишеп at 18.11.2016 17:17)
Поблагодарили: пока никто не поблагодарил...
Тип торрента: публичный - доступные источники с открытых трекеров: 
Размер: 359 MB (занимает 0,08 DVDR, для записи нужно 1 болванка DVDR/RW)
 
 
Похожие темы
Форум Тема Автор Торрент Отв. Посл. сооб.
Сборники Pop, Disco, Dance (Pop) VA - Ураган хитов (2009) [MP3, 128 kbps] БогDan
0 | 0

1 | 2322

22

02.07.2009 19:05

Сборники Pop, Disco, Dance (Pop) VA - Авторадио дискотека - 80х (2007) [MP3,128 kbps] Алексей 25
3 | 0

2 | 2483

55

07.02.2014 19:10

Сборники Pop, Disco, Dance (Pop) VA - Все новинки этого года (2011) [MP3, 256 kbps] МУХА~
0 | 0

0 | 1159

11

23.02.2011 18:18

Сборники Pop, Disco, Dance (Pop) VA - Eurovision Song Contest Dusseldorf 2011 (2 CD) (2011) [MP3, CBR 192 kbps] ZondeR
0 | 0

1 | 880

3

19.09.2011 13:33

Сборники Pop, Disco, Dance (Pop) VA - Супер ДискотЭка 90-х from AGR (2011) [MP3, 320 kbps] Dark6120
0 | 0

1 | 1211

20

19.09.2011 12:15

Сборники Pop, Disco, Dance (Pop) VA - Лучшая 100-ка Ретро-FM: Золотые хиты 80-х 50/50 (2011) [MP3, 256 kbps] 90ytr90
9 | 0

0 | 1587

75

12.12.2012 14:58

Сборники Pop, Disco, Dance (Pop) VA - Лучшая русская 100-ка Super новинок 15 (2012) [MP3, 256 kbps] 90ytr90
0 | 0

0 | 1206

21

12.12.2012 15:46

Сборники Pop, Disco, Dance (Pop) VA - Новое и лучшее: Топ сборник 3 (2012) [MP3, 256 kbps] 90ytr90
0 | 0

0 | 1185

20

12.12.2012 16:16

Сборники Pop, Disco, Dance (Pop) VA - Зимний Хит (2012) [MP3, 256 kbps] 90ytr90
0 | 0

1 | 1545

19

16.12.2012 11:57

Сборники Pop, Disco, Dance (Pop) VA - Зимняя дискотека в стиле ретро (2012) [MP3, 256 kbps] 90ytr90
2 | 0

0 | 1892

43

16.12.2012 10:28

Бишеп Пол:Муж

18-Ноя-2016 17:21

Имел/встречал, держал в руках :) такие диски :( но этот без апконверта все треки CDDA в Логе проверки качества видно.
Бывают же в жизни чудеса :D

Яндекс.Метрика powered by Sphinx


В Н И М А Н И Е
Сайт не распространяет и не хранит электронные версии произведений, а лишь бесплатно и без коммерческой выгоды (не требуя взамен платы,
SMS и т.д.) предоставляет доступ к создаваемому пользователями каталогу ссылок на торрент-файлы, которые содержат только списки хеш-сумм.
Убедительная просьба с жалобами обращаться напрямую к пользователю, разместившему торрент файл.

Вверх