Loading...
Error

(R'n'B) The Pussycat Dolls - PCD (2005) [FLAC (Image+.Cue), Lossless]

Статистика раздачи
Размер:  540 MB   |    Зарегистрирован:  1 год   |    Скачан:  1 раз

Полного источника не было: 1 месяц 1 день

Сидов:  0  |  0 KB/s  ]   Личеров:  0  |  0 KB/s  ]

* - сиды/пиры с внешних источников

   
 
Автор Сообщение

Бишеп Пол:Муж

17-Ноя-2016 09:15

The Pussycat Dolls - PCD

Жанр: R'n'B
Год выпуска: 2005
Источник: CD
Производитель диска: A&M Records - UICY-20374
Аудиокодек: FLAC
Тип рипа: Image+.CUE
Битрейт аудио: lossless
Продолжительность: 00:57:52


Треклист:
01. Don't Cha (feat. Busta Rhymes)
02. Beep (feat. Will.i.am)
03. Wait A Minute (feat. Timbaland)
04. Stickwitu
05. Buttons
06. I Don't Need A Man
07. Hot Stuff (I Want You Back)
08. How Many Times, How Many Lies
09. Bite The Dust
10. Right Now
11. Tainted Love / Where Did Our Love Go
12. Feelin' Good
13. Sway
14. Flirt
15. We Went As Far As We Felt Like Going
16. Don't Cha (Live Version)

Код:

Exact Audio Copy V1.0 beta 6 from 9. April 2015

Отчёт EAC об извлечении, выполненном 13. января 2016, 22:07

The Pussycat Dolls / PCD

Дисковод: SlimtypeDVD A  DS8A9SH   Adapter: 1  ID: 0

Режим чтения                 : Достоверность
Использование точного потока : Да
Отключение кэша аудио        : Да
Использование указателей C2  : Нет

Коррекция смещения при чтении                     : 6
Способность читать области Lead-in и Lead-out     : Нет
Заполнение пропущенных сэмплов тишиной            : Да
Удаление блоков с тишиной в начале и конце        : Нет
При вычислениях CRC использовались нулевые сэмплы : Да
Интерфейс                                         : Встроенный Win32-интерфейс для Win NT/2000

Выходной формат          : Пользовательский кодировщик
Выбранный битрейт        : 128 kBit/s
Качество                 : Высокий
Добавление ID3-тега      : Нет
Утилита сжатия           : D:\Program Files (x86)\Exact Audio Copy\Flac\flac.exe
Дополнительные параметры : -V -8 -T "Date=%year%" -T "Genre=%genre%" %source%

TOC извлечённого CD

     Трек |   Старт  | Длительность | Начальный сектор | Конечный сектор
    ---------------------------------------------------------------------
       1  |  0:00.00 |    4:32.06   |           0      |      20405     
       2  |  4:32.06 |    3:49.27   |       20406      |      37607     
       3  |  8:21.33 |    3:41.71   |       37608      |      54253     
       4  | 12:03.29 |    3:27.38   |       54254      |      69816     
       5  | 15:30.67 |    3:45.42   |       69817      |      86733     
       6  | 19:16.34 |    3:39.07   |       86734      |     103165     
       7  | 22:55.41 |    3:46.55   |      103166      |     120170     
       8  | 26:42.21 |    3:55.59   |      120171      |     137854     
       9  | 30:38.05 |    3:32.59   |      137855      |     153813     
      10  | 34:10.64 |    2:27.08   |      153814      |     164846     
      11  | 36:37.72 |    3:25.39   |      164847      |     180260     
      12  | 40:03.36 |    4:19.28   |      180261      |     199713     
      13  | 44:22.64 |    3:11.31   |      199714      |     214069     
      14  | 47:34.20 |    2:55.63   |      214070      |     227257     
      15  | 50:30.08 |    3:51.59   |      227258      |     244641     
      16  | 54:21.67 |    3:30.41   |      244642      |     260432     

Характеристики диапазона извлечения и сообщения об ошибках

Выбранный диапазон

     Имя файла D:\My Rips\Audio\The Pussycat Dolls - 2005 - PCD [Japan]\The Pussycat Dolls - PCD.wav

     Пиковый уровень 100.0 %
     Скорость извлечения 4.4 X
     Качество диапазона 100.0 %
     CRC теста A71872EE
     CRC копии A71872EE
     Копирование... OK

Ошибок не произошло

 
AccurateRip: сводка
 
Трек  1  : извлечено точно (доверие 4)  [3A4F3F6B]  (AR v2)
Трек  2  : извлечено точно (доверие 4)  [85B25796]  (AR v2)
Трек  3  : извлечено точно (доверие 4)  [280EC3C3]  (AR v2)
Трек  4  : извлечено точно (доверие 4)  [62C55F48]  (AR v2)
Трек  5  : извлечено точно (доверие 4)  [594F8558]  (AR v2)
Трек  6  : извлечено точно (доверие 4)  [7BD71154]  (AR v2)
Трек  7  : извлечено точно (доверие 4)  [924815A4]  (AR v2)
Трек  8  : извлечено точно (доверие 4)  [108AEBA1]  (AR v2)
Трек  9  : извлечено точно (доверие 4)  [BFC6996A]  (AR v2)
Трек 10  : извлечено точно (доверие 4)  [75FB8350]  (AR v2)
Трек 11  : извлечено точно (доверие 4)  [685934C0]  (AR v2)
Трек 12  : извлечено точно (доверие 4)  [759638E6]  (AR v2)
Трек 13  : извлечено точно (доверие 4)  [2376D2B2]  (AR v2)
Трек 14  : извлечено точно (доверие 4)  [D6F1CC1D]  (AR v2)
Трек 15  : извлечено точно (доверие 4)  [EEB67D02]  (AR v2)
Трек 16  : извлечено точно (доверие 4)  [84D25D71]  (AR v2)
 
Все треки извлечены точно

Конец отчёта

==== Контрольная сумма отчёта 835C90910A1B8075C13AD2BF86AD698271164085855A18D8D83645A7F9FB769A ====

Код:

REM GENRE "R&B/Hip Hop"
REM DATE 2005
REM DISCID D20D9010
REM COMMENT "ExactAudioCopy v1.0b6"
PERFORMER "The Pussycat Dolls"
TITLE "PCD"
FILE "The Pussycat Dolls - PCD.flac" WAVE
  TRACK 01 AUDIO
    TITLE "Don't Cha (feat. Busta Rhymes)"
    PERFORMER "The Pussycat Dolls"
    INDEX 01 00:00:00
  TRACK 02 AUDIO
    TITLE "Beep (feat. Will.i.am)"
    PERFORMER "The Pussycat Dolls"
    INDEX 01 04:32:06
  TRACK 03 AUDIO
    TITLE "Wait A Minute (feat. Timbaland)"
    PERFORMER "The Pussycat Dolls"
    INDEX 01 08:21:33
  TRACK 04 AUDIO
    TITLE "Stickwitu"
    PERFORMER "The Pussycat Dolls"
    INDEX 01 12:03:29
  TRACK 05 AUDIO
    TITLE "Buttons"
    PERFORMER "The Pussycat Dolls"
    INDEX 01 15:30:67
  TRACK 06 AUDIO
    TITLE "I Don't Need A Man"
    PERFORMER "The Pussycat Dolls"
    INDEX 01 19:16:34
  TRACK 07 AUDIO
    TITLE "Hot Stuff (I Want You Back)"
    PERFORMER "The Pussycat Dolls"
    INDEX 01 22:55:41
  TRACK 08 AUDIO
    TITLE "How Many Times, How Many Lies"
    PERFORMER "The Pussycat Dolls"
    INDEX 01 26:42:21
  TRACK 09 AUDIO
    TITLE "Bite The Dust"
    PERFORMER "The Pussycat Dolls"
    INDEX 01 30:38:05
  TRACK 10 AUDIO
    TITLE "Right Now"
    PERFORMER "The Pussycat Dolls"
    INDEX 01 34:10:64
  TRACK 11 AUDIO
    TITLE "Tainted Love / Where Did Our Love Go"
    PERFORMER "The Pussycat Dolls"
    INDEX 01 36:37:72
  TRACK 12 AUDIO
    TITLE "Feelin' Good"
    PERFORMER "The Pussycat Dolls"
    INDEX 01 40:03:36
  TRACK 13 AUDIO
    TITLE "Sway"
    PERFORMER "The Pussycat Dolls"
    INDEX 00 44:22:15
    INDEX 01 44:22:64
  TRACK 14 AUDIO
    TITLE "Flirt"
    PERFORMER "The Pussycat Dolls"
    INDEX 00 47:33:61
    INDEX 01 47:34:20
  TRACK 15 AUDIO
    TITLE "We Went As Far As We Felt Like Going"
    PERFORMER "The Pussycat Dolls"
    INDEX 00 50:29:38
    INDEX 01 50:30:08
  TRACK 16 AUDIO
    TITLE "Don't Cha (Live Version)"
    PERFORMER "The Pussycat Dolls"
    INDEX 00 54:20:44
    INDEX 01 54:21:67

Этот торрент недоступен для скачивания без регистрации, однако доступен по публичной magnet-ссылке (источники с публичных трекеров). Перед использованием ссылки прочтите, пожалуйста Пользовательское соглашение, а также как можно дольше оставайтесь на раздаче! Для того, чтобы скачать сам торрент-файл (который видит больше источников), а также для того, чтобы поблагодарить релизера, вам необходимо зарегистрироваться. Если регистрироваться лень - вы можете также попробовать скачать релиз по нашим партнерским ссылкам ниже.

[underverse.su].t73838.torrent
Трекер: Зарегистрирован   [ 17.11.2016 09:15 ]  

Статус: проверено (by Бишеп at 17.11.2016 09:15)
Поблагодарили: пока никто не поблагодарил...
Тип торрента: публичный - доступные источники с открытых трекеров: 
Размер: 540 MB (занимает 0,12 DVDR, для записи нужно 1 болванка DVDR/RW)
 
 

Яндекс.Метрика powered by Sphinx


В Н И М А Н И Е
Сайт не распространяет и не хранит электронные версии произведений, а лишь бесплатно и без коммерческой выгоды (не требуя взамен платы,
SMS и т.д.) предоставляет доступ к создаваемому пользователями каталогу ссылок на торрент-файлы, которые содержат только списки хеш-сумм.
Убедительная просьба с жалобами обращаться напрямую к пользователю, разместившему торрент файл.

Вверх