Loading...
Error

(Pop, R'n'B, House) Craig David - Following My Intuition (Deluxe Edition) (2016) [FLAC (Image+.Cue), Lossless]

Статистика раздачи
Размер:  429 MB   |    Зарегистрирован:  1 год   |    Скачан:  2 раза

Полного источника не было: 9 дней

Сидов:  0  |  0 KB/s  ]   Личеров:  0  |  0 KB/s  ]

* - сиды/пиры с внешних источников

   
 
Автор Сообщение

Бишеп Пол:Муж

17-Ноя-2016 04:55

Craig David - Following My Intuition (Deluxe Edition)

Жанр: Pop, R'n'B, House
Год выпуска: 2016
Источник: CD
Производитель диска: Sony Music - 88985343062
Аудиокодек: FLAC
Тип рипа: Image+.CUE
Битрейт аудио: lossless
Продолжительность: #


Треклист:
01. Ain't Giving Up (with Sigala)
02. When The Bassline Drops (with Big Narstie)
03. Don't Go
04. 16
05. Couldn't Be Mine
06. One More Time
07. Change My Love
08. Nothing Like This (with Blonde)
09. Got It Good (feat. Kaytranada)
10. All We Needed
11. Louder Than Words
12. What If
13. Like A Fan
14. Better With You
15. No Holding Back (with Hardwell)
16. Here With Me
17. Warm It Up
18. Sink Or Swim

Код:

Exact Audio Copy V1.1 from 23. June 2015

EAC extraction logfile from 2. October 2016, 18:06

Craig David / Following My Intuition

Used drive  : Pioneer BDR-209DBK   Adapter: 0  ID: 0

Read mode               : Secure
Utilize accurate stream : Yes
Defeat audio cache      : Yes
Make use of C2 pointers : No

Read offset correction                      : 6
Overread into Lead-In and Lead-Out          : No
Fill up missing offset samples with silence : Yes
Delete leading and trailing silent blocks   : No
Null samples used in CRC calculations       : Yes
Used interface                              : Installed external ASPI interface

Used output format : Internal WAV Routines
Sample format      : 44.100 Hz; 16 Bit; Stereo

TOC of the extracted CD

     Track |   Start  |  Length  | Start sector | End sector
    ---------------------------------------------------------
        1  |  0:00.00 |  2:38.37 |         0    |    11886   
        2  |  2:38.37 |  3:05.15 |     11887    |    25776   
        3  |  5:43.52 |  3:27.52 |     25777    |    41353   
        4  |  9:11.29 |  3:48.28 |     41354    |    58481   
        5  | 12:59.57 |  3:01.36 |     58482    |    72092   
        6  | 16:01.18 |  3:14.39 |     72093    |    86681   
        7  | 19:15.57 |  3:24.34 |     86682    |   102015   
        8  | 22:40.16 |  3:02.27 |    102016    |   115692   
        9  | 25:42.43 |  3:49.47 |    115693    |   132914   
       10  | 29:32.15 |  3:37.13 |    132915    |   149202   
       11  | 33:09.28 |  4:05.30 |    149203    |   167607   
       12  | 37:14.58 |  3:39.22 |    167608    |   184054   
       13  | 40:54.05 |  5:07.42 |    184055    |   207121   
       14  | 46:01.47 |  3:13.48 |    207122    |   221644   
       15  | 49:15.20 |  2:44.26 |    221645    |   233970   
       16  | 51:59.46 |  3:12.15 |    233971    |   248385   
       17  | 55:11.61 |  3:11.07 |    248386    |   262717   
       18  | 58:22.68 |  3:21.20 |    262718    |   277812   

Range status and errors

Selected range

     Filename H:\Spotnet\Craig David - Following My Intuition (EAC)\Craig David - Following My Intuition.wav

     Peak level 100.0 %
     Extraction speed 7.5 X
     Range quality 100.0 %
     Test CRC 3968B120
     Copy CRC 3968B120
     Copy OK

No errors occurred

 
AccurateRip summary
 
Track  1  not present in database
Track  2  not present in database
Track  3  not present in database
Track  4  not present in database
Track  5  not present in database
Track  6  not present in database
Track  7  not present in database
Track  8  not present in database
Track  9  not present in database
Track 10  not present in database
Track 11  not present in database
Track 12  not present in database
Track 13  not present in database
Track 14  not present in database
Track 15  not present in database
Track 16  not present in database
Track 17  not present in database
Track 18  not present in database
 
None of the tracks are present in the AccurateRip database

End of status report

Код:

REM GENRE Pop
REM DATE 2016
REM DISCID F70E7812
REM COMMENT ExactAudioCopy v1.1
PERFORMER "Craig David"
TITLE "Following My Intuition"
FILE "Craig David - Following My Intuition.flac" WAVE
  TRACK 01 AUDIO
    TITLE "Ain't Giving Up (with Sigala)"
    INDEX 01 00:00:00
  TRACK 02 AUDIO
    TITLE "When The Bassline Drops (with Big Narstie)"
    INDEX 01 02:38:37
  TRACK 03 AUDIO
    TITLE "Don't Go"
    INDEX 01 05:43:52
  TRACK 04 AUDIO
    TITLE "16"
    INDEX 01 09:11:29
  TRACK 05 AUDIO
    TITLE "Couldn't Be Mine"
    INDEX 01 12:59:57
  TRACK 06 AUDIO
    TITLE "One More Time"
    INDEX 01 16:01:18
  TRACK 07 AUDIO
    TITLE "Change My Love"
    INDEX 01 19:15:57
  TRACK 08 AUDIO
    TITLE "Nothing Like This (with Blonde)"
    INDEX 01 22:40:16
  TRACK 09 AUDIO
    TITLE "Got It Good (feat. KAYTRANADA)"
    INDEX 01 25:42:43
  TRACK 10 AUDIO
    TITLE "All We Needed"
    INDEX 01 29:32:15
  TRACK 11 AUDIO
    TITLE "Louder Than Words"
    INDEX 01 33:09:28
  TRACK 12 AUDIO
    TITLE "What If"
    INDEX 01 37:14:58
  TRACK 13 AUDIO
    TITLE "Like A Fan"
    INDEX 01 40:54:05
  TRACK 14 AUDIO
    TITLE "Better With You"
    INDEX 01 46:01:47
  TRACK 15 AUDIO
    TITLE "No Holding Back (with Hardwell)"
    INDEX 01 49:15:20
  TRACK 16 AUDIO
    TITLE "Here With Me"
    INDEX 01 51:59:46
  TRACK 17 AUDIO
    TITLE "Warm It Up"
    INDEX 01 55:11:61
  TRACK 18 AUDIO
    TITLE "Sink Or Swim"
    INDEX 01 58:22:68

Этот торрент недоступен для скачивания без регистрации, однако доступен по публичной magnet-ссылке (источники с публичных трекеров). Перед использованием ссылки прочтите, пожалуйста Пользовательское соглашение, а также как можно дольше оставайтесь на раздаче! Для того, чтобы скачать сам торрент-файл (который видит больше источников), а также для того, чтобы поблагодарить релизера, вам необходимо зарегистрироваться. Если регистрироваться лень - вы можете также попробовать скачать релиз по нашим партнерским ссылкам ниже.

[underverse.su].t73827.torrent
Трекер: Зарегистрирован   [ 17.11.2016 04:55 ]  

Статус: проверено (by Бишеп at 17.11.2016 04:55)
Поблагодарили: пока никто не поблагодарил...
Тип торрента: публичный - доступные источники с открытых трекеров: 
Размер: 429 MB (занимает 0,1 DVDR, для записи нужно 1 болванка DVDR/RW)
 
 
Похожие темы
Форум Тема Автор Торрент Отв. Посл. сооб.
Зарубежная Pop Музыка (Pop, R'n'B) Pixie Lott - Platinum Pixie: Hits (2014) [MP3, 320 kbps] 90ytr90
1 | 0

0 | 683

1

16.03.2015 18:25

Зарубежная Pop Музыка (Pop, R'n'B) Khalid Robinson - American Teen (2017) [MP3, 320 kbps CBR] Darkferse
11 | 5

0 | 254

1

24.05.2017 15:59

Отечественная Pop Музыка (Pop, R'n'B) Пыльца - Анти R'n'B (2010) [MP3, 320 kbps] МУХА~
0 | 0

1 | 1420

6

19.09.2011 13:21

Зарубежный R'n'B (Pop, R'n'B) Fifth Harmony - Fifth Harmony (2017) [MP3, 320 kbps CBR] Darkferse
7 | 4

0 | 337

2

26.08.2017 19:06

Зарубежная Поп Музыка (Lossless) (Pop, R'n'B) Whitney Houston - The Ultimate Collection (2007) [FLAC (Image+.CUE), Lossless] Бишеп
1 | 0

1 | 824

13

27.02.2014 18:19

Зарубежная Поп Музыка (Lossless) (Pop, R'n'B) Pixie Lott - Pixie Lott (2014) [FLAC (Tracks), Lossless] (WEB) Бишеп
0 | 0

0 | 798

7

13.09.2014 09:18

Зарубежная Поп Музыка (Lossless) (Pop, R'n'B) Justin Timberlake - Justified (2002) [FLAC (Tracks+.CUE), Lossless] Бишеп
7 | 5

0 | 957

1

05.02.2015 07:56


Яндекс.Метрика powered by Sphinx


В Н И М А Н И Е
Сайт не распространяет и не хранит электронные версии произведений, а лишь бесплатно и без коммерческой выгоды (не требуя взамен платы,
SMS и т.д.) предоставляет доступ к создаваемому пользователями каталогу ссылок на торрент-файлы, которые содержат только списки хеш-сумм.
Убедительная просьба с жалобами обращаться напрямую к пользователю, разместившему торрент файл.

Вверх