Loading...
Error

(R'n'B, Pop, Soul) Emeli Sande - Long Live The Angels (2016) [FLAC (Image+.Cue), Lossless]

Статистика раздачи
Размер:  314 MB   |    Зарегистрирован:  1 год   |    Скачан:  1 раз

Полного источника не было: 7 месяцев

Сидов:  0  |  0 KB/s  ]   Личеров:  0  |  0 KB/s  ]

* - сиды/пиры с внешних источников

   
 
Автор Сообщение

Бишеп Пол:Муж

17-Ноя-2016 04:42

Emeli Sande - Long Live The Angels

Жанр: R'n'B, Pop, Soul
Год выпуска: 2016
Источник: CD
Производитель диска: Virgin Records - CDV3163
Аудиокодек: FLAC
Тип рипа: Image+.CUE
Битрейт аудио: lossless
Продолжительность: 00:52:06


Треклист:
01. Selah
02. Breathing Underwater
03. Happen
04. Hurts
05. Give Me Something
06. Right Now
07. Shakes
08. Garden (feat. Jay Electronica & Áine Zion)
09. I'd Rather Not
10. Lonely
11. Sweet Architect
12. Tenderly (feat. Joel Sandé & The Serenje Choir)
13. Every Single Little Piece
14. Highs & Lows
15. Babe

Код:

Exact Audio Copy V1.1 from 23. June 2015

EAC extraction logfile from 11. November 2016, 20:14

Emeli Sandé  / Long Live The Angels

Used drive  : Pioneer BDR-209DBK   Adapter: 0  ID: 0

Read mode               : Secure
Utilize accurate stream : Yes
Defeat audio cache      : Yes
Make use of C2 pointers : No

Read offset correction                      : 6
Overread into Lead-In and Lead-Out          : No
Fill up missing offset samples with silence : Yes
Delete leading and trailing silent blocks   : No
Null samples used in CRC calculations       : Yes
Used interface                              : Installed external ASPI interface

Used output format : Internal WAV Routines
Sample format      : 44.100 Hz; 16 Bit; Stereo

TOC of the extracted CD

     Track |   Start  |  Length  | Start sector | End sector
    ---------------------------------------------------------
        1  |  0:00.00 |  2:30.09 |         0    |    11258   
        2  |  2:30.09 |  4:22.66 |     11259    |    30974   
        3  |  6:53.00 |  3:35.50 |     30975    |    47149   
        4  | 10:28.50 |  3:58.23 |     47150    |    65022   
        5  | 14:26.73 |  3:52.47 |     65023    |    82469   
        6  | 18:19.45 |  2:14.20 |     82470    |    92539   
        7  | 20:33.65 |  2:49.42 |     92540    |   105256   
        8  | 23:23.32 |  4:02.03 |    105257    |   123409   
        9  | 27:25.35 |  3:49.54 |    123410    |   140638   
       10  | 31:15.14 |  3:33.67 |    140639    |   156680   
       11  | 34:49.06 |  3:19.59 |    156681    |   171664   
       12  | 38:08.65 |  3:22.03 |    171665    |   186817   
       13  | 41:30.68 |  4:03.01 |    186818    |   205043   
       14  | 45:33.69 |  3:14.50 |    205044    |   219643   
       15  | 48:48.44 |  3:17.36 |    219644    |   234454   

Range status and errors

Selected range

     Filename H:\Spotnet\Emeli Sande - Long Live The Angels (EAC)\Emeli Sandé  - Long Live The Angels.wav

     Peak level 100.0 %
     Extraction speed 7.2 X
     Range quality 100.0 %
     Test CRC ED568A27
     Copy CRC ED568A27
     Copy OK

No errors occurred

 
AccurateRip summary
 
Track  1  not present in database
Track  2  not present in database
Track  3  not present in database
Track  4  not present in database
Track  5  not present in database
Track  6  not present in database
Track  7  not present in database
Track  8  not present in database
Track  9  not present in database
Track 10  not present in database
Track 11  not present in database
Track 12  not present in database
Track 13  not present in database
Track 14  not present in database
Track 15  not present in database
 
None of the tracks are present in the AccurateRip database

End of status report

Код:

REM GENRE Pop
REM DATE 2016
REM DISCID BD0C360F
REM COMMENT "ExactAudioCopy v1.1"
PERFORMER "Emeli Sande"
TITLE "Long Live The Angels"
FILE "Emeli Sande - Long Live The Angels.flac" WAVE
  TRACK 01 AUDIO
    TITLE "Selah"
    PERFORMER "Emeli Sande"
    INDEX 01 00:00:00
  TRACK 02 AUDIO
    TITLE "Breathing Underwater"
    PERFORMER "Emeli Sande"
    INDEX 01 02:30:09
  TRACK 03 AUDIO
    TITLE "Happen"
    PERFORMER "Emeli Sande"
    INDEX 01 06:53:00
  TRACK 04 AUDIO
    TITLE "Hurts"
    PERFORMER "Emeli Sande"
    INDEX 01 10:28:50
  TRACK 05 AUDIO
    TITLE "Give Me Something"
    PERFORMER "Emeli Sande"
    INDEX 01 14:26:73
  TRACK 06 AUDIO
    TITLE "Right Now"
    PERFORMER "Emeli Sande"
    INDEX 01 18:19:45
  TRACK 07 AUDIO
    TITLE "Shakes"
    PERFORMER "Emeli Sande"
    INDEX 01 20:33:65
  TRACK 08 AUDIO
    TITLE "Garden (feat. Jay Electronica & Aine Zion)"
    PERFORMER "Emeli Sande"
    INDEX 01 23:23:32
  TRACK 09 AUDIO
    TITLE "I'd Rather Not"
    PERFORMER "Emeli Sande"
    INDEX 01 27:25:35
  TRACK 10 AUDIO
    TITLE "Lonely"
    PERFORMER "Emeli Sande"
    INDEX 01 31:15:14
  TRACK 11 AUDIO
    TITLE "Sweet Architect"
    PERFORMER "Emeli Sande"
    INDEX 01 34:49:06
  TRACK 12 AUDIO
    TITLE "Tenderly (feat. Joel Sande & The Serenje Choir)"
    PERFORMER "Emeli Sande"
    INDEX 01 38:08:65
  TRACK 13 AUDIO
    TITLE "Every Single Little Piece"
    PERFORMER "Emeli Sande"
    INDEX 01 41:30:68
  TRACK 14 AUDIO
    TITLE "Highs & Lows"
    PERFORMER "Emeli Sande"
    INDEX 01 45:33:69
  TRACK 15 AUDIO
    TITLE "Babe"
    PERFORMER "Emeli Sande"
    INDEX 01 48:48:44

Этот торрент недоступен для скачивания без регистрации, однако доступен по публичной magnet-ссылке (источники с публичных трекеров). Перед использованием ссылки прочтите, пожалуйста Пользовательское соглашение, а также как можно дольше оставайтесь на раздаче! Для того, чтобы скачать сам торрент-файл (который видит больше источников), а также для того, чтобы поблагодарить релизера, вам необходимо зарегистрироваться. Если регистрироваться лень - вы можете также попробовать скачать релиз по нашим партнерским ссылкам ниже.

[underverse.su].t73825.torrent
Трекер: Зарегистрирован   [ 17.11.2016 04:42 ]  

Статус: проверено (by Бишеп at 17.11.2016 04:43)
Поблагодарили: пока никто не поблагодарил...
Тип торрента: публичный - доступные источники с открытых трекеров: 
Размер: 314 MB (занимает 0,07 DVDR, для записи нужно 1 болванка DVDR/RW)
 
 
Похожие темы
Форум Тема Автор Торрент Отв. Посл. сооб.
Зарубежный R'n'B (Lossless) (R'n'B, Pop, Soul) Emeli Sande (Sande) - Our Version Of Events: Live At The Royal Albert Hall (2013) [FLAC (Image+.Cue), Lossless] Бишеп
3 | 0

0 | 533

1

20.11.2016 14:17

Зарубежный R'n'B (Lossless) (R'n'B, Pop, Soul) Emeli Sande - Our Version of Events (2012) [FLAC (Tracks+.Cue), Lossless] Бишеп
5 | 18

0 | 462

1

07.11.2016 17:07

Зарубежный R'n'B (Lossless) (R'n'B, Pop, Soul) Bruno Mars - Unorthodox Jukebox (Target Deluxe Edition) (2012) [FLAC (Tracks+.Cue), lossless] Бишеп
6 | 3

0 | 785

2

07.11.2016 16:59

Зарубежный R'n'B (Lossless) (R'n'B, Pop) Bruno Mars - Doo-Wops & Hooligans (2010) [FLAC (Tracks+.CUE), Lossless] Бишеп
3 | 0

0 | 2139

5

04.11.2013 10:53

Зарубежный R'n'B (Lossless) (R'n'B, Pop, Hip Hop) Nelly Furtado - The Best Of (Deluxe Edition 2CD) (2010) [FLAC (Image+.CUE), Lossless] Бишеп
9 | 2

0 | 1972

5

08.01.2014 14:03

Зарубежный R'n'B (Lossless) (R'n'B, Pop, Soul) Sam Smith - In The Lonely Hour (Target Deluxe Edition) (2014) [FLAC (Tracks+.CUE), Lossless] Бишеп
7 | 6

0 | 1601

4

27.10.2014 20:17

Зарубежный R'n'B (Lossless) (R'n'B, Pop) Naughty Boy feat. Sam Smith - La La La (Promo CD) (2013) [FLAC (Image+.CUE), Lossless] Бишеп
2 | 0

0 | 802

2

07.02.2015 07:09

Зарубежный R'n'B (Lossless) (R'n'B, Pop) Fifth Harmony - 7/27 (Deluxe Edition) (2016) [FLAC (Tracks), Lossless] Web Бишеп
1 | 5

0 | 710

1

03.11.2016 05:56

Зарубежный R'n'B (Lossless) (R'n'B, Pop) Fifth Harmony - Reflection (Deluxe Edition) (2015) [FLAC (Tracks+.Cue), Lossless] Бишеп
7 | 3

0 | 648

2

03.11.2016 05:48

* Архив (R'n'B, Pop) Ради Славы - Будем счастливыми (2008) [MP3, CBR 320 kbps] EugeneShad

2 | 1336

30.08.2010 01:31


Яндекс.Метрика powered by Sphinx


В Н И М А Н И Е
Сайт не распространяет и не хранит электронные версии произведений, а лишь бесплатно и без коммерческой выгоды (не требуя взамен платы,
SMS и т.д.) предоставляет доступ к создаваемому пользователями каталогу ссылок на торрент-файлы, которые содержат только списки хеш-сумм.
Убедительная просьба с жалобами обращаться напрямую к пользователю, разместившему торрент файл.

Вверх