Loading...
Error

(R'n'B, Trap) Rihanna - ANTI (Deluxe Edition) (2016) [FLAC (Image+.Cue), Lossless]

Статистика раздачи
Размер:  337 MB   |    Зарегистрирован:  1 год   |    Скачан:  2 раза

Полного источника не было: 1 день 21 час

Сидов:  0  |  0 KB/s  ]   Личеров:  0  |  0 KB/s  ]

* - сиды/пиры с внешних источников

   
 
Автор Сообщение

Бишеп Пол:Муж

17-Ноя-2016 03:43

Rihanna - ANTI (Deluxe Edition)

Жанр: R'n'B, Trap
Год выпуска: 2016
Источник: CD
Производитель диска: Westbury Road Entertainment, LCC - 0851365006103
Аудиокодек: FLAC
Тип рипа: Image+.CUE
Битрейт аудио: lossless
Продолжительность: 00:51:13


Треклист:
01. Consideration (feat. SZA) (2:41)
02. James Joint (1:12)
03. Kiss It Better (4:13)
04. Work (feat. Drake) (3:39)
05. Desperado (3:06)
06. Woo (3:56)
07. Needed Me (3:12)
08. Yeah, I Said It (2:13)
09. Same Ol’ Mistakes (6:37)
10. Never Ending (3:23)
11. Love On The Brain (3:44)
12. Higher (2:01)
13. Close To You (3:58)
Deluxe Edition:
14. Goodnight Gotham (1:28)
15. Pose (2:24)
16. Sex With Me (3:26)

Код:

Exact Audio Copy V1.1 from 23. June 2015

EAC extraction logfile from 6. February 2016, 10:40

Rihanna / ANTI (Deluxe Edition)

Used drive  : HL-DT-STDVDRAM GH24NSD1   Adapter: 0  ID: 0

Read mode               : Secure
Utilize accurate stream : Yes
Defeat audio cache      : Yes
Make use of C2 pointers : No

Read offset correction                      : 6
Overread into Lead-In and Lead-Out          : No
Fill up missing offset samples with silence : Yes
Delete leading and trailing silent blocks   : No
Null samples used in CRC calculations       : Yes
Used interface                              : Installed external ASPI interface

Used output format : Internal WAV Routines
Sample format      : 44.100 Hz; 16 Bit; Stereo

TOC of the extracted CD

     Track |   Start  |  Length  | Start sector | End sector
    ---------------------------------------------------------
        1  |  0:00.00 |  2:41.05 |         0    |    12079   
        2  |  2:41.05 |  1:12.06 |     12080    |    17485   
        3  |  3:53.11 |  4:13.06 |     17486    |    36466   
        4  |  8:06.17 |  3:39.24 |     36467    |    52915   
        5  | 11:45.41 |  3:06.35 |     52916    |    66900   
        6  | 14:52.01 |  3:55.44 |     66901    |    84569   
        7  | 18:47.45 |  3:11.45 |     84570    |    98939   
        8  | 21:59.15 |  2:13.06 |     98940    |   108920   
        9  | 24:12.21 |  6:37.07 |    108921    |   138702   
       10  | 30:49.28 |  3:22.38 |    138703    |   153890   
       11  | 34:11.66 |  3:44.00 |    153891    |   170690   
       12  | 37:55.66 |  2:00.47 |    170691    |   179737   
       13  | 39:56.38 |  3:57.71 |    179738    |   197583   
       14  | 43:54.34 |  1:28.37 |    197584    |   204220   
       15  | 45:22.71 |  2:24.17 |    204221    |   215037   
       16  | 47:47.13 |  3:26.30 |    215038    |   230517   

Range status and errors

Selected range

     Filename E:\SPOT NIEUW\Rihanna - Anti (Deluxe) (EAC)\Rihanna - ANTI (Deluxe Edition).wav

     Peak level 99.8 %
     Extraction speed 7.1 X
     Range quality 100.0 %
     Test CRC 5BBC8C4B
     Copy CRC 5BBC8C4B
     Copy OK

No errors occurred

 
AccurateRip summary
 
Track  1  not present in database
Track  2  not present in database
Track  3  not present in database
Track  4  not present in database
Track  5  not present in database
Track  6  not present in database
Track  7  not present in database
Track  8  not present in database
Track  9  not present in database
Track 10  not present in database
Track 11  not present in database
Track 12  not present in database
Track 13  not present in database
Track 14  not present in database
Track 15  not present in database
Track 16  not present in database
 
None of the tracks are present in the AccurateRip database

End of status report

Код:

REM GENRE R&B
REM DATE 2016
REM DISCID E90C0110
REM COMMENT "ExactAudioCopy v1.1"
PERFORMER "Rihanna"
TITLE "ANTI (Deluxe Edition)"
FILE "Rihanna - ANTI (Deluxe Edition).flac" WAVE
  TRACK 01 AUDIO
    TITLE "Consideration"
    PERFORMER "Rihanna feat. SZA"
    INDEX 01 00:00:00
  TRACK 02 AUDIO
    TITLE "James Joint"
    PERFORMER "Rihanna"
    INDEX 01 02:41:05
  TRACK 03 AUDIO
    TITLE "Kiss It Better"
    PERFORMER "Rihanna"
    INDEX 01 03:53:11
  TRACK 04 AUDIO
    TITLE "Work"
    PERFORMER "Rihanna feat. Drake"
    INDEX 01 08:06:17
  TRACK 05 AUDIO
    TITLE "Desperado"
    PERFORMER "Rihanna"
    INDEX 01 11:45:41
  TRACK 06 AUDIO
    TITLE "Woo"
    PERFORMER "Rihanna"
    INDEX 01 14:52:01
  TRACK 07 AUDIO
    TITLE "Needed Me"
    PERFORMER "Rihanna"
    INDEX 01 18:47:45
  TRACK 08 AUDIO
    TITLE "Yeah, I Said It"
    PERFORMER "Rihanna"
    INDEX 01 21:59:15
  TRACK 09 AUDIO
    TITLE "Same Ol’ Mistakes"
    PERFORMER "Rihanna"
    INDEX 01 24:12:21
  TRACK 10 AUDIO
    TITLE "Never Ending"
    PERFORMER "Rihanna"
    INDEX 01 30:49:28
  TRACK 11 AUDIO
    TITLE "Love On The Brain"
    PERFORMER "Rihanna"
    INDEX 01 34:11:66
  TRACK 12 AUDIO
    TITLE "Higher"
    PERFORMER "Rihanna"
    INDEX 01 37:55:66
  TRACK 13 AUDIO
    TITLE "Close To You"
    PERFORMER "Rihanna"
    INDEX 01 39:56:38
  TRACK 14 AUDIO
    TITLE "Goodnight Gotham"
    PERFORMER "Rihanna"
    INDEX 00 43:39:54
    INDEX 01 43:54:34
  TRACK 15 AUDIO
    TITLE "Pose"
    PERFORMER "Rihanna"
    INDEX 01 45:22:71
  TRACK 16 AUDIO
    TITLE "Sex With Me"
    PERFORMER "Rihanna"
    INDEX 01 47:47:13

Этот торрент недоступен для скачивания без регистрации, однако доступен по публичной magnet-ссылке (источники с публичных трекеров). Перед использованием ссылки прочтите, пожалуйста Пользовательское соглашение, а также как можно дольше оставайтесь на раздаче! Для того, чтобы скачать сам торрент-файл (который видит больше источников), а также для того, чтобы поблагодарить релизера, вам необходимо зарегистрироваться. Если регистрироваться лень - вы можете также попробовать скачать релиз по нашим партнерским ссылкам ниже.

[underverse.su].t73823.torrent
Трекер: Зарегистрирован   [ 17.11.2016 03:55 ]  

Статус: проверено (by Бишеп at 17.11.2016 03:55)
Поблагодарили: пока никто не поблагодарил...
Тип торрента: публичный - доступные источники с открытых трекеров: 
Размер: 337 MB (занимает 0,08 DVDR, для записи нужно 1 болванка DVDR/RW)
 
 

Яндекс.Метрика powered by Sphinx


В Н И М А Н И Е
Сайт не распространяет и не хранит электронные версии произведений, а лишь бесплатно и без коммерческой выгоды (не требуя взамен платы,
SMS и т.д.) предоставляет доступ к создаваемому пользователями каталогу ссылок на торрент-файлы, которые содержат только списки хеш-сумм.
Убедительная просьба с жалобами обращаться напрямую к пользователю, разместившему торрент файл.

Вверх