Loading...
Error

(R'n'B) Alicia Keys - The Element Of Freedom (Deluxe Japanese Edition) (2010) [FLAC (Tracks+.Cue), Lossless]

Статистика раздачи
Размер:  425 MB   |    Зарегистрирован:  1 год   |    Скачан:  2 раза

Полного источника не было: 3 часа

Сидов:  0  |  0 KB/s  ]   Личеров:  0  |  0 KB/s  ]

* - сиды/пиры с внешних источников

   
 
Автор Сообщение

Бишеп Пол:Муж

16-Ноя-2016 20:12

Alicia Keys - The Element Of Freedom (Deluxe Japanese Edition)

Жанр: R'n'B
Год выпуска: 2010
Источник: CD
Производитель диска: Sony Music Japan - SICP 2583-4
Аудиокодек: FLAC
Тип рипа: Tracks+.CUE
Битрейт аудио: lossless
Продолжительность: 01:10:25


Треклист:
01. The Element Of Freedom (Intro) (0:13)
02. Love Is Blind (3:50)
03. Doesn't Mean Anything (4:33)
04. Try Sleeping With A Broken Heart (4:09)
05. Wait Til You See My Smile (4:01)
06. That's How Strong My Love Is (4:05)
07. Un-Thinkable (I'm Ready) (4:09)
08. Love Is My Disease (4:02)
09. Like The Sea (4:13)
10. Put It In A Love Song (feat. Beyonce) (3:15)
11. This Bed (3:45)
12. Distance And Time (4:27)
13. How It Feels To Fly (4:43)
14. Empire State Of Mind (Part II) Broken Down (3:36)
Bonus Tracks:
15. Through It All (4:28)
16. Pray For Forgiveness (4:44)
17. Stolen Moments (4:53)
18. Heaven's Door (3:19)

Код:

Exact Audio Copy V1.1 from 23. June 2015

EAC extraction logfile from 31. August 2015, 19:05

Alicia Keys / The Element of Freedom

Used drive  : HL-DT-STDVDRAM GT60N   Adapter: 1  ID: 1

Read mode               : Secure
Utilize accurate stream : Yes
Defeat audio cache      : Yes
Make use of C2 pointers : No

Read offset correction                      : 103
Overread into Lead-In and Lead-Out          : No
Fill up missing offset samples with silence : Yes
Delete leading and trailing silent blocks   : No
Null samples used in CRC calculations       : Yes
Used interface                              : Native Win32 interface for Win NT & 2000
Gap handling                                : Appended to previous track

Used output format              : User Defined Encoder
Selected bitrate                : 320 kBit/s
Quality                         : High
Add ID3 tag                     : Yes
Command line compressor         : C:\Program Files (x86)\Exact Audio Copy\Flac\flac.exe
Additional command line options : -8 -V -T "ARTIST=%artist%" -T "TITLE=%title%" -T "ALBUM=%albumtitle%" -T "DATE=%year%" -T "TRACKNUMBER=%tracknr%" -T "GENRE=%genre%" -T "PERFORMER=%albuminterpret%" -T "COMPOSER=%composer%" %haslyrics%--tag-from-file=LYRICS="%lyricsfile%"%haslyrics% -T "ALBUMARTIST=%albumartist%" -T "DISCNUMBER=%cdnumber%" -T "TOTALDISCS=%totalcds%" -T "TOTALTRACKS=%numtracks%" -T "COMMENT=%comment%" %source% -o %dest%

TOC of the extracted CD

     Track |   Start  |  Length  | Start sector | End sector
    ---------------------------------------------------------
        1  |  0:00.00 |  0:12.56 |         0    |      955   
        2  |  0:12.56 |  3:49.54 |       956    |    18184   
        3  |  4:02.35 |  4:32.46 |     18185    |    38630   
        4  |  8:35.06 |  4:09.01 |     38631    |    57306   
        5  | 12:44.07 |  4:01.24 |     57307    |    75405   
        6  | 16:45.31 |  4:04.45 |     75406    |    93750   
        7  | 20:50.01 |  4:09.13 |     93751    |   112438   
        8  | 24:59.14 |  4:01.73 |    112439    |   130586   
        9  | 29:01.12 |  4:13.10 |    130587    |   149571   
       10  | 33:14.22 |  3:15.36 |    149572    |   164232   
       11  | 36:29.58 |  3:45.15 |    164233    |   181122   
       12  | 40:14.73 |  4:27.28 |    181123    |   201175   
       13  | 44:42.26 |  4:42.50 |    201176    |   222375   
       14  | 49:25.01 |  3:36.30 |    222376    |   238605   
       15  | 53:01.31 |  4:27.70 |    238606    |   258700   
       16  | 57:29.26 |  4:44.29 |    258701    |   280029   
       17  | 62:13.55 |  4:52.46 |    280030    |   301975   
       18  | 67:06.26 |  3:18.61 |    301976    |   316886   

Track  1

     Filename J:\EAC Rips\Alicia Keys - The Element of Freedom (2010)\01 - The Element of Freedom (Intro).wav

     Pre-gap length  0:00:02.00

     Peak level 16.3 %
     Extraction speed 0.8 X
     Track quality 100.0 %
     Test CRC 438F0D84
     Copy CRC 438F0D84
     Accurately ripped (confidence 1)  [DBAA6A31]  (AR v2)
     Copy OK

Track  2

     Filename J:\EAC Rips\Alicia Keys - The Element of Freedom (2010)\02 - Love Is Blind.wav

     Peak level 98.8 %
     Extraction speed 2.4 X
     Track quality 99.9 %
     Test CRC C7F4AED5
     Copy CRC C7F4AED5
     Accurately ripped (confidence 1)  [01763982]  (AR v2)
     Copy OK

Track  3

     Filename J:\EAC Rips\Alicia Keys - The Element of Freedom (2010)\03 - Doesn't Mean Anything.wav

     Peak level 98.9 %
     Extraction speed 3.3 X
     Track quality 100.0 %
     Test CRC EB2E01E9
     Copy CRC EB2E01E9
     Accurately ripped (confidence 1)  [68EF6664]  (AR v2)
     Copy OK

Track  4

     Filename J:\EAC Rips\Alicia Keys - The Element of Freedom (2010)\04 - Try Sleeping With a Broken Heart.wav

     Peak level 98.8 %
     Extraction speed 2.9 X
     Track quality 99.9 %
     Test CRC 2FBC0CC9
     Copy CRC 2FBC0CC9
     Accurately ripped (confidence 1)  [B46F68A4]  (AR v2)
     Copy OK

Track  5

     Filename J:\EAC Rips\Alicia Keys - The Element of Freedom (2010)\05 - Wait Til You See My Smile.wav

     Peak level 98.8 %
     Extraction speed 3.0 X
     Track quality 99.9 %
     Test CRC B424987C
     Copy CRC B424987C
     Accurately ripped (confidence 1)  [66F91EC6]  (AR v2)
     Copy OK

Track  6

     Filename J:\EAC Rips\Alicia Keys - The Element of Freedom (2010)\06 - That's How Strong My Love Is.wav

     Pre-gap length  0:00:01.10

     Peak level 98.8 %
     Extraction speed 3.9 X
     Track quality 100.0 %
     Test CRC D0199190
     Copy CRC D0199190
     Accurately ripped (confidence 1)  [44685301]  (AR v2)
     Copy OK

Track  7

     Filename J:\EAC Rips\Alicia Keys - The Element of Freedom (2010)\07 - Un-Thinkable (I'm Ready).wav

     Peak level 98.8 %
     Extraction speed 4.1 X
     Track quality 100.0 %
     Test CRC 0CD6632C
     Copy CRC 0CD6632C
     Accurately ripped (confidence 1)  [EAC0B9C5]  (AR v2)
     Copy OK

Track  8

     Filename J:\EAC Rips\Alicia Keys - The Element of Freedom (2010)\08 - Love Is My Disease.wav

     Peak level 98.8 %
     Extraction speed 4.3 X
     Track quality 100.0 %
     Test CRC F6E94095
     Copy CRC F6E94095
     Accurately ripped (confidence 1)  [EA6411E3]  (AR v2)
     Copy OK

Track  9

     Filename J:\EAC Rips\Alicia Keys - The Element of Freedom (2010)\09 - Like the Sea.wav

     Peak level 98.8 %
     Extraction speed 4.6 X
     Track quality 100.0 %
     Test CRC 71CAEE8D
     Copy CRC 71CAEE8D
     Accurately ripped (confidence 1)  [F7E46032]  (AR v2)
     Copy OK

Track 10

     Filename J:\EAC Rips\Alicia Keys - The Element of Freedom (2010)\10 - Put It in a Love Song (feat. Beyonce).wav

     Pre-gap length  0:00:00.01

     Peak level 98.8 %
     Extraction speed 4.5 X
     Track quality 100.0 %
     Test CRC 56A2A51C
     Copy CRC 56A2A51C
     Accurately ripped (confidence 1)  [D61258BC]  (AR v2)
     Copy OK

Track 11

     Filename J:\EAC Rips\Alicia Keys - The Element of Freedom (2010)\11 - This Bed.wav

     Peak level 76.6 %
     Extraction speed 4.8 X
     Track quality 100.0 %
     Test CRC 24D80682
     Copy CRC 24D80682
     Accurately ripped (confidence 1)  [983C9B5D]  (AR v2)
     Copy OK

Track 12

     Filename J:\EAC Rips\Alicia Keys - The Element of Freedom (2010)\12 - Distance and Time.wav

     Pre-gap length  0:00:00.02

     Peak level 100.0 %
     Extraction speed 5.1 X
     Track quality 100.0 %
     Test CRC 16526D23
     Copy CRC 16526D23
     Accurately ripped (confidence 1)  [4F23A5F1]  (AR v2)
     Copy OK

Track 13

     Filename J:\EAC Rips\Alicia Keys - The Element of Freedom (2010)\13 - How It Feels to Fly.wav

     Pre-gap length  0:00:00.01

     Peak level 98.8 %
     Extraction speed 5.3 X
     Track quality 100.0 %
     Test CRC 4C328F65
     Copy CRC 4C328F65
     Accurately ripped (confidence 1)  [59B6C5F0]  (AR v2)
     Copy OK

Track 14

     Filename J:\EAC Rips\Alicia Keys - The Element of Freedom (2010)\14 - Empire State of Mind (Part II) Broken Down.wav

     Pre-gap length  0:00:00.02

     Peak level 98.8 %
     Extraction speed 5.2 X
     Track quality 100.0 %
     Test CRC 646F2AD7
     Copy CRC 646F2AD7
     Accurately ripped (confidence 1)  [65A8CAB6]  (AR v2)
     Copy OK

Track 15

     Filename J:\EAC Rips\Alicia Keys - The Element of Freedom (2010)\15 - Through It All.wav

     Peak level 98.8 %
     Extraction speed 4.5 X
     Track quality 99.9 %
     Test CRC D411648E
     Copy CRC D411648E
     Accurately ripped (confidence 1)  [D9856DB3]  (AR v2)
     Copy OK

Track 16

     Filename J:\EAC Rips\Alicia Keys - The Element of Freedom (2010)\16 - Pray For Forgiveness.wav

     Peak level 98.8 %
     Extraction speed 5.7 X
     Track quality 100.0 %
     Test CRC CC0BF14B
     Copy CRC CC0BF14B
     Accurately ripped (confidence 1)  [ABF96233]  (AR v2)
     Copy OK

Track 17

     Filename J:\EAC Rips\Alicia Keys - The Element of Freedom (2010)\17 - Stolen Moments.wav

     Peak level 98.8 %
     Extraction speed 5.9 X
     Track quality 100.0 %
     Test CRC 4DACC21E
     Copy CRC 4DACC21E
     Accurately ripped (confidence 1)  [B2E4362A]  (AR v2)
     Copy OK

Track 18

     Filename J:\EAC Rips\Alicia Keys - The Element of Freedom (2010)\18 - Heaven's Door.wav

     Peak level 98.8 %
     Extraction speed 5.7 X
     Track quality 100.0 %
     Test CRC 1BAB3016
     Copy CRC 1BAB3016
     Accurately ripped (confidence 1)  [EB6C37FF]  (AR v2)
     Copy OK

All tracks accurately ripped

No errors occurred

End of status report

---- CUETools DB Plugin V2.1.6

[CTDB TOCID: MQbsvtJv_w8dB1dyY26IzYrvlho-] disk not present in database
Submit result: MQbsvtJv_w8dB1dyY26IzYrvlho- has been uploaded

==== Log checksum 13312454E479EA33F691582477FA84D7BDDA72579A1BFED8C6076B45B4AE70AE ====

Код:

REM GENRE R&B
REM DATE 2010
REM DISCID F4108112
REM COMMENT "ExactAudioCopy v1.1"
PERFORMER "Alicia Keys"
TITLE "The Element of Freedom"
FILE "Alicia Keys - The Element of Freedom (2010)\01 - The Element of Freedom (Intro).wav" WAVE
  TRACK 01 AUDIO
    TITLE "The Element of Freedom (Intro)"
    PERFORMER "Alicia Keys"
    ISRC USJAY0900286
    INDEX 01 00:00:00
FILE "Alicia Keys - The Element of Freedom (2010)\02 - Love Is Blind.wav" WAVE
  TRACK 02 AUDIO
    TITLE "Love Is Blind"
    PERFORMER "Alicia Keys"
    ISRC USJAY0900276
    INDEX 01 00:00:00
FILE "Alicia Keys - The Element of Freedom (2010)\03 - Doesn't Mean Anything.wav" WAVE
  TRACK 03 AUDIO
    TITLE "Doesn't Mean Anything"
    PERFORMER "Alicia Keys"
    ISRC USJAY0900211
    INDEX 01 00:00:00
FILE "Alicia Keys - The Element of Freedom (2010)\04 - Try Sleeping With a Broken Heart.wav" WAVE
  TRACK 04 AUDIO
    TITLE "Try Sleeping With a Broken Heart"
    PERFORMER "Alicia Keys"
    ISRC USJAY0900254
    INDEX 01 00:00:00
FILE "Alicia Keys - The Element of Freedom (2010)\05 - Wait Til You See My Smile.wav" WAVE
  TRACK 05 AUDIO
    TITLE "Wait Til You See My Smile"
    PERFORMER "Alicia Keys"
    ISRC USJAY0900279
    INDEX 01 00:00:00
  TRACK 06 AUDIO
    TITLE "That's How Strong My Love Is"
    PERFORMER "Alicia Keys"
    ISRC USJAY0900281
    INDEX 00 04:00:16
FILE "Alicia Keys - The Element of Freedom (2010)\06 - That's How Strong My Love Is.wav" WAVE
    INDEX 01 00:00:00
FILE "Alicia Keys - The Element of Freedom (2010)\07 - Un-Thinkable (I'm Ready).wav" WAVE
  TRACK 07 AUDIO
    TITLE "Un-Thinkable (I'm Ready)"
    PERFORMER "Alicia Keys"
    ISRC USJAY0900287
    INDEX 01 00:00:00
FILE "Alicia Keys - The Element of Freedom (2010)\08 - Love Is My Disease.wav" WAVE
  TRACK 08 AUDIO
    TITLE "Love Is My Disease"
    PERFORMER "Alicia Keys"
    ISRC USJAY0900287
    INDEX 01 00:00:00
FILE "Alicia Keys - The Element of Freedom (2010)\09 - Like the Sea.wav" WAVE
  TRACK 09 AUDIO
    TITLE "Like the Sea"
    PERFORMER "Alicia Keys"
    ISRC USJAY0900289
    INDEX 01 00:00:00
  TRACK 10 AUDIO
    TITLE "Put It in a Love Song (feat. Beyonce)"
    PERFORMER "Alicia Keys"
    ISRC USJAY0900289
    INDEX 00 04:13:09
FILE "Alicia Keys - The Element of Freedom (2010)\10 - Put It in a Love Song (feat. Beyonce).wav" WAVE
    INDEX 01 00:00:00
FILE "Alicia Keys - The Element of Freedom (2010)\11 - This Bed.wav" WAVE
  TRACK 11 AUDIO
    TITLE "This Bed"
    PERFORMER "Alicia Keys"
    ISRC USJAY0900278
    INDEX 01 00:00:00
  TRACK 12 AUDIO
    TITLE "Distance and Time"
    PERFORMER "Alicia Keys"
    ISRC USJAY0900283
    INDEX 00 03:45:13
FILE "Alicia Keys - The Element of Freedom (2010)\12 - Distance and Time.wav" WAVE
    INDEX 01 00:00:00
  TRACK 13 AUDIO
    TITLE "How It Feels to Fly"
    PERFORMER "Alicia Keys"
    ISRC USJAY0900290
    INDEX 00 04:27:27
FILE "Alicia Keys - The Element of Freedom (2010)\13 - How It Feels to Fly.wav" WAVE
    INDEX 01 00:00:00
  TRACK 14 AUDIO
    TITLE "Empire State of Mind (Part II) Broken Down"
    PERFORMER "Alicia Keys"
    ISRC USJAY0900290
    INDEX 00 04:42:48
FILE "Alicia Keys - The Element of Freedom (2010)\14 - Empire State of Mind (Part II) Broken Down.wav" WAVE
    INDEX 01 00:00:00
FILE "Alicia Keys - The Element of Freedom (2010)\15 - Through It All.wav" WAVE
  TRACK 15 AUDIO
    TITLE "Through It All"
    PERFORMER "Alicia Keys"
    ISRC USJAY0900280
    INDEX 01 00:00:00
FILE "Alicia Keys - The Element of Freedom (2010)\16 - Pray For Forgiveness.wav" WAVE
  TRACK 16 AUDIO
    TITLE "Pray For Forgiveness"
    PERFORMER "Alicia Keys"
    ISRC USJAY0900285
    INDEX 01 00:00:00
FILE "Alicia Keys - The Element of Freedom (2010)\17 - Stolen Moments.wav" WAVE
  TRACK 17 AUDIO
    TITLE "Stolen Moments"
    PERFORMER "Alicia Keys"
    ISRC USJAY0900275
    INDEX 01 00:00:00
FILE "Alicia Keys - The Element of Freedom (2010)\18 - Heaven's Door.wav" WAVE
  TRACK 18 AUDIO
    TITLE "Heaven's Door"
    PERFORMER "Alicia Keys"
    ISRC USJAY0900300
    INDEX 01 00:00:00

Этот торрент недоступен для скачивания без регистрации, однако доступен по публичной magnet-ссылке (источники с публичных трекеров). Перед использованием ссылки прочтите, пожалуйста Пользовательское соглашение, а также как можно дольше оставайтесь на раздаче! Для того, чтобы скачать сам торрент-файл (который видит больше источников), а также для того, чтобы поблагодарить релизера, вам необходимо зарегистрироваться. Если регистрироваться лень - вы можете также попробовать скачать релиз по нашим партнерским ссылкам ниже.

[underverse.su].t73807.torrent
Трекер: Зарегистрирован   [ 16.11.2016 20:12 ]  

Статус: проверено (by Бишеп at 16.11.2016 20:12)
Поблагодарили: пока никто не поблагодарил...
Тип торрента: публичный - доступные источники с открытых трекеров: 
Размер: 425 MB (занимает 0,09 DVDR, для записи нужно 1 болванка DVDR/RW)
 
 

Яндекс.Метрика powered by Sphinx


В Н И М А Н И Е
Сайт не распространяет и не хранит электронные версии произведений, а лишь бесплатно и без коммерческой выгоды (не требуя взамен платы,
SMS и т.д.) предоставляет доступ к создаваемому пользователями каталогу ссылок на торрент-файлы, которые содержат только списки хеш-сумм.
Убедительная просьба с жалобами обращаться напрямую к пользователю, разместившему торрент файл.

Вверх