Loading...
Error

(R'n'B, Neo-Soul) D'Angelo and The Vanguard - Black Messiah (2014) [FLAC (Tracks+.Cue), Lossless]

Статистика раздачи
Размер:  317 MB   |    Зарегистрирован:  1 год   |    Скачан:  1 раз

Полного источника не было: 1 месяц

Сидов:  0  |  0 KB/s  ]   Личеров:  0  |  0 KB/s  ]

* - сиды/пиры с внешних источников

   
 
Автор Сообщение

Бишеп Пол:Муж

16-Ноя-2016 19:23

D'Angelo and The Vanguard - Black Messiah

Жанр: R'n'B, Neo-Soul
Год выпуска: 2014
Источник: CD
Производитель диска: RCA
Аудиокодек: FLAC
Тип рипа: Tracks+.CUE
Битрейт аудио: lossless
Продолжительность: 00:55:54


Треклист:
01. Ain't That Easy
02. 1000 Deaths
03. The Charade
04. Sugah Daddy
05. Really Love
06. Back in the Future (Part I)
07. Till It's Done (Tutu)
08. Prayer
09. Betray My Heart
10. The Door
11. Back in the Future (Part II)
12. Another Life

Код:

X Lossless Decoder version 20141129 (148.1)

XLD extraction logfile from 2014-12-15 21:53:31 -0800

D'Angelo And The Vanguard / Black Messiah

Used drive : MATSHITA DVD-R   UJ-8A8 (revision HA13)
Media type : Pressed CD

Ripper mode             : XLD Secure Ripper
Disable audio cache     : OK for the drive with a cache less than 1375KiB
Make use of C2 pointers : NO
Read offset correction  : 102
Max retry count         : 20
Gap status              : Analyzed, Appended (except HTOA)

TOC of the extracted CD
     Track |   Start  |  Length  | Start sector | End sector
    ---------------------------------------------------------
        1  | 00:00:00 | 04:49:26 |         0    |    21700   
        2  | 04:49:26 | 05:49:52 |     21701    |    47927   
        3  | 10:39:03 | 03:20:63 |     47928    |    62990   
        4  | 13:59:66 | 05:02:63 |     62991    |    85703   
        5  | 19:02:54 | 05:44:26 |     85704    |   111529   
        6  | 24:47:05 | 05:22:09 |    111530    |   135688   
        7  | 30:09:14 | 03:51:69 |    135689    |   153082   
        8  | 34:01:08 | 04:32:70 |    153083    |   173552   
        9  | 38:34:03 | 05:55:25 |    173553    |   200202   
       10  | 44:29:28 | 03:08:09 |    200203    |   214311   
       11  | 47:37:37 | 02:24:61 |    214312    |   225172   
       12  | 50:02:23 | 05:58:47 |    225173    |   252069   

AccurateRip Summary
    Disc not found in AccurateRip DB.

All Tracks
    Album gain               : -6.66 dB
    Peak                     : 1.000000
    Statistics
        Read error                           : 0
        Jitter error (maybe fixed)           : 0
        Retry sector count                   : 0
        Damaged sector count                 : 0

Track 01
    Filename : /Users/KAYVON/Desktop/D'Angelo And The Vanguard - Black Messiah (2014) [FLAC]/01 Ain't That Easy.flac
    Pre-gap length : 00:02:00

    Track gain               : -7.74 dB
    Peak                     : 0.989105
    CRC32 hash (test run)    : 1885C4D9
    CRC32 hash               : 1885C4D9
    CRC32 hash (skip zero)   : 9483DA77
    AccurateRip v1 signature : 572AF618
    AccurateRip v2 signature : B44702F3
        ->Track not present in AccurateRip database.
    Statistics
        Read error                           : 0
        Jitter error (maybe fixed)           : 0
        Retry sector count                   : 0
        Damaged sector count                 : 0

Track 02
    Filename : /Users/KAYVON/Desktop/D'Angelo And The Vanguard - Black Messiah (2014) [FLAC]/02 1000 Deaths.flac

    Track gain               : -7.23 dB
    Peak                     : 0.958252
    CRC32 hash (test run)    : D7148EC2
    CRC32 hash               : D7148EC2
    CRC32 hash (skip zero)   : 29BD23C2
    AccurateRip v1 signature : 3E6DDEFB
    AccurateRip v2 signature : B3EAA8AB
        ->Track not present in AccurateRip database.
    Statistics
        Read error                           : 0
        Jitter error (maybe fixed)           : 0
        Retry sector count                   : 0
        Damaged sector count                 : 0

Track 03
    Filename : /Users/KAYVON/Desktop/D'Angelo And The Vanguard - Black Messiah (2014) [FLAC]/03 The Charade.flac

    Track gain               : -7.97 dB
    Peak                     : 0.961212
    CRC32 hash (test run)    : 26B38615
    CRC32 hash               : 26B38615
    CRC32 hash (skip zero)   : F72F16E0
    AccurateRip v1 signature : F82AABA6
    AccurateRip v2 signature : 0AAFB95F
        ->Track not present in AccurateRip database.
    Statistics
        Read error                           : 0
        Jitter error (maybe fixed)           : 0
        Retry sector count                   : 0
        Damaged sector count                 : 0

Track 04
    Filename : /Users/KAYVON/Desktop/D'Angelo And The Vanguard - Black Messiah (2014) [FLAC]/04 Sugah Daddy.flac

    Track gain               : -5.44 dB
    Peak                     : 1.000000
    CRC32 hash (test run)    : 9703F993
    CRC32 hash               : 9703F993
    CRC32 hash (skip zero)   : 858A2B25
    AccurateRip v1 signature : 9E0E2760
    AccurateRip v2 signature : BCA3ED7D
        ->Track not present in AccurateRip database.
    Statistics
        Read error                           : 0
        Jitter error (maybe fixed)           : 0
        Retry sector count                   : 0
        Damaged sector count                 : 0

Track 05
    Filename : /Users/KAYVON/Desktop/D'Angelo And The Vanguard - Black Messiah (2014) [FLAC]/05 Really Love.flac

    Track gain               : -5.34 dB
    Peak                     : 1.000000
    CRC32 hash (test run)    : 938437F9
    CRC32 hash               : 938437F9
    CRC32 hash (skip zero)   : 58161E27
    AccurateRip v1 signature : 6E2039CA
    AccurateRip v2 signature : 4BBB9B1D
        ->Track not present in AccurateRip database.
    Statistics
        Read error                           : 0
        Jitter error (maybe fixed)           : 0
        Retry sector count                   : 0
        Damaged sector count                 : 0

Track 06
    Filename : /Users/KAYVON/Desktop/D'Angelo And The Vanguard - Black Messiah (2014) [FLAC]/06 Back to the Future (Part I).flac

    Track gain               : -5.58 dB
    Peak                     : 0.969391
    CRC32 hash (test run)    : 2F186355
    CRC32 hash               : 2F186355
    CRC32 hash (skip zero)   : 02F37C72
    AccurateRip v1 signature : D6E65A8A
    AccurateRip v2 signature : B50E5853
        ->Track not present in AccurateRip database.
    Statistics
        Read error                           : 0
        Jitter error (maybe fixed)           : 0
        Retry sector count                   : 0
        Damaged sector count                 : 0

Track 07
    Filename : /Users/KAYVON/Desktop/D'Angelo And The Vanguard - Black Messiah (2014) [FLAC]/07 Till It's Done (Tutu).flac

    Track gain               : -5.82 dB
    Peak                     : 0.984161
    CRC32 hash (test run)    : 6540D61F
    CRC32 hash               : 6540D61F
    CRC32 hash (skip zero)   : CEE18FE7
    AccurateRip v1 signature : 579CFFBC
    AccurateRip v2 signature : B3487B85
        ->Track not present in AccurateRip database.
    Statistics
        Read error                           : 0
        Jitter error (maybe fixed)           : 0
        Retry sector count                   : 0
        Damaged sector count                 : 0

Track 08
    Filename : /Users/KAYVON/Desktop/D'Angelo And The Vanguard - Black Messiah (2014) [FLAC]/08 Prayer.flac

    Track gain               : -7.12 dB
    Peak                     : 0.982117
    CRC32 hash (test run)    : 81C600AD
    CRC32 hash               : 81C600AD
    CRC32 hash (skip zero)   : 3D619BB7
    AccurateRip v1 signature : 08B4214F
    AccurateRip v2 signature : F07BE01B
        ->Track not present in AccurateRip database.
    Statistics
        Read error                           : 0
        Jitter error (maybe fixed)           : 0
        Retry sector count                   : 0
        Damaged sector count                 : 0

Track 09
    Filename : /Users/KAYVON/Desktop/D'Angelo And The Vanguard - Black Messiah (2014) [FLAC]/09 Betray My Heart.flac

    Track gain               : -6.65 dB
    Peak                     : 0.976013
    CRC32 hash (test run)    : 9C386493
    CRC32 hash               : 9C386493
    CRC32 hash (skip zero)   : 0DBFA38B
    AccurateRip v1 signature : 0EE13C95
    AccurateRip v2 signature : E8348FCC
        ->Track not present in AccurateRip database.
    Statistics
        Read error                           : 0
        Jitter error (maybe fixed)           : 0
        Retry sector count                   : 0
        Damaged sector count                 : 0

Track 10
    Filename : /Users/KAYVON/Desktop/D'Angelo And The Vanguard - Black Messiah (2014) [FLAC]/10 The Door.flac

    Track gain               : -5.49 dB
    Peak                     : 0.974304
    CRC32 hash (test run)    : 63E103A9
    CRC32 hash               : 63E103A9
    CRC32 hash (skip zero)   : 65956C39
    AccurateRip v1 signature : 7ADBABDA
    AccurateRip v2 signature : A0CBEE41
        ->Track not present in AccurateRip database.
    Statistics
        Read error                           : 0
        Jitter error (maybe fixed)           : 0
        Retry sector count                   : 0
        Damaged sector count                 : 0

Track 11
    Filename : /Users/KAYVON/Desktop/D'Angelo And The Vanguard - Black Messiah (2014) [FLAC]/11 Back to the Future (Part II).flac

    Track gain               : -7.68 dB
    Peak                     : 0.967743
    CRC32 hash (test run)    : BC414370
    CRC32 hash               : BC414370
    CRC32 hash (skip zero)   : 22DFB73D
    AccurateRip v1 signature : 5C3349C0
    AccurateRip v2 signature : F2CDB8C9
        ->Track not present in AccurateRip database.
    Statistics
        Read error                           : 0
        Jitter error (maybe fixed)           : 0
        Retry sector count                   : 0
        Damaged sector count                 : 0

Track 12
    Filename : /Users/KAYVON/Desktop/D'Angelo And The Vanguard - Black Messiah (2014) [FLAC]/12 Another Life.flac

    Track gain               : -7.17 dB
    Peak                     : 0.959351
    CRC32 hash (test run)    : 2C9F8522
    CRC32 hash               : 2C9F8522
    CRC32 hash (skip zero)   : FC5291BB
    AccurateRip v1 signature : 65583E28
    AccurateRip v2 signature : B60B93C0
        ->Track not present in AccurateRip database.
    Statistics
        Read error                           : 0
        Jitter error (maybe fixed)           : 0
        Retry sector count                   : 0
        Damaged sector count                 : 0

No errors occurred

End of status report

-----BEGIN XLD SIGNATURE-----
ifDrXIOdWVtRkrYyiBtVIxF_AwRPhoRTuYGYVONET0j8nr3OJB9Ux5lZp9K7LsXCY2oCOqdn89VHQiA9FMtC29Dci39pZVr9DJlG92i
-----END XLD SIGNATURE-----

Код:

TITLE "Black Messiah"
PERFORMER "D'Angelo And The Vanguard"
REM GENRE "R&B"
REM DATE "2014"
REM DISCNUMBER 1
REM TOTALDISCS 1
REM DISCID 950D200C
REM REPLAYGAIN_ALBUM_GAIN -6.66 dB
REM REPLAYGAIN_ALBUM_PEAK 1.000000
FILE "01 Ain't That Easy.flac" WAVE
  TRACK 01 AUDIO
    TITLE "Ain't That Easy"
    PERFORMER "D'Angelo And The Vanguard"
    ISRC USRC11403095
    REM REPLAYGAIN_TRACK_GAIN -7.74 dB
    REM REPLAYGAIN_TRACK_PEAK 0.989105
    INDEX 01 00:00:00
FILE "02 1000 Deaths.flac" WAVE
  TRACK 02 AUDIO
    TITLE "1000 Deaths"
    PERFORMER "D'Angelo And The Vanguard"
    ISRC USRC11403096
    REM REPLAYGAIN_TRACK_GAIN -7.23 dB
    REM REPLAYGAIN_TRACK_PEAK 0.958252
    INDEX 01 00:00:00
FILE "03 The Charade.flac" WAVE
  TRACK 03 AUDIO
    TITLE "The Charade"
    PERFORMER "D'Angelo And The Vanguard"
    ISRC USRC11403097
    REM REPLAYGAIN_TRACK_GAIN -7.97 dB
    REM REPLAYGAIN_TRACK_PEAK 0.961212
    INDEX 01 00:00:00
FILE "04 Sugah Daddy.flac" WAVE
  TRACK 04 AUDIO
    TITLE "Sugah Daddy"
    PERFORMER "D'Angelo And The Vanguard"
    ISRC USRC11403098
    REM REPLAYGAIN_TRACK_GAIN -5.44 dB
    REM REPLAYGAIN_TRACK_PEAK 1.000000
    INDEX 01 00:00:00
FILE "05 Really Love.flac" WAVE
  TRACK 05 AUDIO
    TITLE "Really Love"
    PERFORMER "D'Angelo And The Vanguard"
    ISRC USRC11403099
    REM REPLAYGAIN_TRACK_GAIN -5.34 dB
    REM REPLAYGAIN_TRACK_PEAK 1.000000
    INDEX 01 00:00:00
FILE "06 Back to the Future (Part I).flac" WAVE
  TRACK 06 AUDIO
    TITLE "Back to the Future (Part I)"
    PERFORMER "D'Angelo And The Vanguard"
    ISRC USRC11403101
    REM REPLAYGAIN_TRACK_GAIN -5.58 dB
    REM REPLAYGAIN_TRACK_PEAK 0.969391
    INDEX 01 00:00:00
FILE "07 Till It's Done (Tutu).flac" WAVE
  TRACK 07 AUDIO
    TITLE "Till It's Done (Tutu)"
    PERFORMER "D'Angelo And The Vanguard"
    ISRC USRC11403102
    REM REPLAYGAIN_TRACK_GAIN -5.82 dB
    REM REPLAYGAIN_TRACK_PEAK 0.984161
    INDEX 01 00:00:00
FILE "08 Prayer.flac" WAVE
  TRACK 08 AUDIO
    TITLE "Prayer"
    PERFORMER "D'Angelo And The Vanguard"
    ISRC USRC11403105
    REM REPLAYGAIN_TRACK_GAIN -7.12 dB
    REM REPLAYGAIN_TRACK_PEAK 0.982117
    INDEX 01 00:00:00
FILE "09 Betray My Heart.flac" WAVE
  TRACK 09 AUDIO
    TITLE "Betray My Heart"
    PERFORMER "D'Angelo And The Vanguard"
    ISRC USRC11403106
    REM REPLAYGAIN_TRACK_GAIN -6.65 dB
    REM REPLAYGAIN_TRACK_PEAK 0.976013
    INDEX 01 00:00:00
FILE "10 The Door.flac" WAVE
  TRACK 10 AUDIO
    TITLE "The Door"
    PERFORMER "D'Angelo And The Vanguard"
    ISRC USRC11403107
    REM REPLAYGAIN_TRACK_GAIN -5.49 dB
    REM REPLAYGAIN_TRACK_PEAK 0.974304
    INDEX 01 00:00:00
FILE "11 Back to the Future (Part II).flac" WAVE
  TRACK 11 AUDIO
    TITLE "Back to the Future (Part II)"
    PERFORMER "D'Angelo And The Vanguard"
    ISRC USRC11403113
    REM REPLAYGAIN_TRACK_GAIN -7.68 dB
    REM REPLAYGAIN_TRACK_PEAK 0.967743
    INDEX 01 00:00:00
FILE "12 Another Life.flac" WAVE
  TRACK 12 AUDIO
    TITLE "Another Life"
    PERFORMER "D'Angelo And The Vanguard"
    ISRC USRC11403109
    REM REPLAYGAIN_TRACK_GAIN -7.17 dB
    REM REPLAYGAIN_TRACK_PEAK 0.959351
    INDEX 01 00:00:00

Этот торрент недоступен для скачивания без регистрации, однако доступен по публичной magnet-ссылке (источники с публичных трекеров). Перед использованием ссылки прочтите, пожалуйста Пользовательское соглашение, а также как можно дольше оставайтесь на раздаче! Для того, чтобы скачать сам торрент-файл (который видит больше источников), а также для того, чтобы поблагодарить релизера, вам необходимо зарегистрироваться. Если регистрироваться лень - вы можете также попробовать скачать релиз по нашим партнерским ссылкам ниже.

[underverse.su].t73803.torrent
Трекер: Зарегистрирован   [ 16.11.2016 19:23 ]  

Статус: проверено (by Бишеп at 16.11.2016 19:24)
Поблагодарили: пока никто не поблагодарил...
Тип торрента: публичный - доступные источники с открытых трекеров: 
Размер: 317 MB (занимает 0,07 DVDR, для записи нужно 1 болванка DVDR/RW)
 
 

Яндекс.Метрика powered by Sphinx


В Н И М А Н И Е
Сайт не распространяет и не хранит электронные версии произведений, а лишь бесплатно и без коммерческой выгоды (не требуя взамен платы,
SMS и т.д.) предоставляет доступ к создаваемому пользователями каталогу ссылок на торрент-файлы, которые содержат только списки хеш-сумм.
Убедительная просьба с жалобами обращаться напрямую к пользователю, разместившему торрент файл.

Вверх