Loading...
Error

(R'n'B, Soul) Toni Braxton & Babyface - Love, Marriage & Divorce (2014) [FLAC (Image+.Cue), Lossless]

Статистика раздачи
Размер:  306 MB   |    Зарегистрирован:  1 год   |    Скачан:  2 раза

Полного источника не было: 4 месяца 24 дня

Сидов:  0  |  0 KB/s  ]   Личеров:  0  |  0 KB/s  ]

* - сиды/пиры с внешних источников

   
 
Автор Сообщение

Бишеп Пол:Муж

16-Ноя-2016 19:06

Toni Braxton & Babyface - Love, Marriage & Divorce

Жанр: R'n'B, Soul
Год выпуска: 2014
Источник: CD
Производитель диска: Motown - B0019428-02
Аудиокодек: FLAC
Тип рипа: Image+.CUE
Битрейт аудио: lossless
Продолжительность: 00:43:41


Треклист:
01. Roller Coaster
02. Sweat
03. Hurt You
04. Where Did We Go Wrong
05. I Hope That You're Okay
06. I Wish
07. Take It Back
08. Reunited
09. I'd Rather Be Broke
10. Heart Attack
11. The D Word

Код:

Exact Audio Copy V1.0 beta 3 from 29. August 2011

EAC extraction logfile from 16. March 2014, 4:15

Toni Braxton & Babyface / Love, Marriage & Divorce

Used drive  : PLEXTOR BD-R   PX-B940SA   Adapter: 0  ID: 5

Read mode               : Secure
Utilize accurate stream : Yes
Defeat audio cache      : Yes
Make use of C2 pointers : No

Read offset correction                      : 667
Overread into Lead-In and Lead-Out          : No
Fill up missing offset samples with silence : Yes
Delete leading and trailing silent blocks   : No
Null samples used in CRC calculations       : Yes
Used interface                              : Installed external ASPI interface

Used output format              : User Defined Encoder
Selected bitrate                : 1024 kBit/s
Quality                         : High
Add ID3 tag                     : Yes
Command line compressor         : E:\Program Files (x86)\Exact Audio Copy\Flac\flac.exe
Additional command line options : -V -8 -T "Date=%year%" -T "Genre=%genre%" %source%

TOC of the extracted CD

     Track |   Start  |  Length  | Start sector | End sector
    ---------------------------------------------------------
        1  |  0:00.00 |  4:23.05 |         0    |    19729   
        2  |  4:23.05 |  4:27.32 |     19730    |    39786   
        3  |  8:50.37 |  4:10.06 |     39787    |    58542   
        4  | 13:00.43 |  3:36.64 |     58543    |    74806   
        5  | 16:37.32 |  3:53.67 |     74807    |    92348   
        6  | 20:31.24 |  3:04.10 |     92349    |   106158   
        7  | 23:35.34 |  4:05.30 |    106159    |   124563   
        8  | 27:40.64 |  3:17.42 |    124564    |   139380   
        9  | 30:58.31 |  3:37.60 |    139381    |   155715   
       10  | 34:36.16 |  3:51.74 |    155716    |   173114   
       11  | 38:28.15 |  5:13.20 |    173115    |   196609   

Range status and errors

Selected range

     Filename D:\MUSIC\Toni Braxton & Babyface - Love, Marriage & Divorce.wav

     Peak level 97.3 %
     Extraction speed 2.7 X
     Range quality 99.9 %
     Test CRC 8014820C
     Copy CRC 8014820C
     Copy OK

No errors occurred

 
AccurateRip summary
 
Track  1  cannot be verified as accurate (confidence 1)  [9C00E765], AccurateRip returned [83939E9A]  (AR v2)
Track  2  cannot be verified as accurate (confidence 1)  [961E2932], AccurateRip returned [056F328E]  (AR v2)
Track  3  cannot be verified as accurate (confidence 1)  [C735E47C], AccurateRip returned [4379FD3C]  (AR v2)
Track  4  cannot be verified as accurate (confidence 1)  [3DBF1207], AccurateRip returned [C29E004C]  (AR v2)
Track  5  cannot be verified as accurate (confidence 1)  [BD1DFB65], AccurateRip returned [5BEB7681]  (AR v2)
Track  6  cannot be verified as accurate (confidence 1)  [0A4C6EA1], AccurateRip returned [5E6ACF11]  (AR v2)
Track  7  cannot be verified as accurate (confidence 1)  [9FDA4AA0], AccurateRip returned [800483C9]  (AR v2)
Track  8  cannot be verified as accurate (confidence 1)  [C3EC6AAE], AccurateRip returned [64F34944]  (AR v2)
Track  9  cannot be verified as accurate (confidence 1)  [BE857F4D], AccurateRip returned [20A16A26]  (AR v2)
Track 10  cannot be verified as accurate (confidence 1)  [41DD27DE], AccurateRip returned [34CA8ACC]  (AR v2)
Track 11  cannot be verified as accurate (confidence 1)  [7D8273C1], AccurateRip returned [9F81244C]  (AR v2)
 
No tracks could be verified as accurate
You may have a different pressing from the one(s) in the database

End of status report

==== Log checksum DFBFC28348073A6E056E409A048E31ABD15441695C8929E40191BAF745EAFA4B ====

Код:

REM GENRE RnB
REM DATE 2014
REM DISCID 900A3D0B
REM COMMENT "ExactAudioCopy v1.0b3"
CATALOG 0602537580996
PERFORMER "Toni Braxton & Babyface"
TITLE "Love, Marriage & Divorce"
FILE "Toni Braxton & Babyface - Love, Marriage & Divorce.flac" WAVE
  TRACK 01 AUDIO
    TITLE "Roller Coaster"
    PERFORMER "Toni Braxton & Babyface"
    ISRC USUM71314717
    INDEX 01 00:00:00
  TRACK 02 AUDIO
    TITLE "Sweat"
    PERFORMER "Toni Braxton & Babyface"
    ISRC USUM71317780
    INDEX 01 04:23:05
  TRACK 03 AUDIO
    TITLE "Hurt You"
    PERFORMER "Toni Braxton & Babyface"
    ISRC USUM71318972
    INDEX 01 08:50:37
  TRACK 04 AUDIO
    TITLE "Where Did We Go Wrong?"
    PERFORMER "Toni Braxton & Babyface"
    ISRC USUM71317826
    INDEX 01 13:00:43
  TRACK 05 AUDIO
    TITLE "I Hope That You're Okay"
    PERFORMER "Toni Braxton & Babyface"
    ISRC USUM71317814
    INDEX 01 16:37:32
  TRACK 06 AUDIO
    TITLE "I Wish"
    PERFORMER "Toni Braxton & Babyface"
    ISRC USUM71317810
    INDEX 01 20:31:24
  TRACK 07 AUDIO
    TITLE "Take It Back"
    PERFORMER "Toni Braxton & Babyface"
    ISRC USUM71317781
    INDEX 01 23:35:34
  TRACK 08 AUDIO
    TITLE "Reunited"
    PERFORMER "Toni Braxton & Babyface"
    ISRC USUM71317812
    INDEX 01 27:40:64
  TRACK 09 AUDIO
    TITLE "I'd Rather Be Broke"
    PERFORMER "Toni Braxton & Babyface"
    ISRC USUM71317825
    INDEX 01 30:58:31
  TRACK 10 AUDIO
    TITLE "Heart Attack"
    PERFORMER "Toni Braxton & Babyface"
    ISRC USUM71317782
    INDEX 01 34:36:16
  TRACK 11 AUDIO
    TITLE "The D Word"
    PERFORMER "Toni Braxton & Babyface"
    ISRC USUM71317813
    INDEX 01 38:28:15

Этот торрент недоступен для скачивания без регистрации, однако доступен по публичной magnet-ссылке (источники с публичных трекеров). Перед использованием ссылки прочтите, пожалуйста Пользовательское соглашение, а также как можно дольше оставайтесь на раздаче! Для того, чтобы скачать сам торрент-файл (который видит больше источников), а также для того, чтобы поблагодарить релизера, вам необходимо зарегистрироваться. Если регистрироваться лень - вы можете также попробовать скачать релиз по нашим партнерским ссылкам ниже.

[underverse.su].t73800.torrent
Трекер: Зарегистрирован   [ 16.11.2016 19:06 ]  

Статус: проверено (by Бишеп at 16.11.2016 19:06)
Поблагодарили: пока никто не поблагодарил...
Тип торрента: публичный - доступные источники с открытых трекеров: 
Размер: 306 MB (занимает 0,07 DVDR, для записи нужно 1 болванка DVDR/RW)
 
 
Похожие темы
Форум Тема Автор Торрент Отв. Посл. сооб.
Зарубежный R'n'B (R'n'B, Soul) Zonnique - Love Jones (EP) (2017) [MP3, 320 kbps CBR] Darkferse
2 | 1

0 | 414

1

12.04.2017 20:58

Зарубежный R'n'B (R'n'B, Soul) Avery Sunshine - Twenty Sixty Four (2017) [MP3, 320 kbps CBR] Darkferse
0 | 0

0 | 635

0

26.04.2017 21:05

Зарубежный R'n'B (R'n'B, Soul, Funk) JMSN - Whatever Makes U Happy (2017) [MP3, 320 kbps CBR] Darkferse
5 | 0

0 | 422

1

12.05.2017 15:32

Зарубежный R'n'B (R'n'B, Soul) PARTYNEXTDOOR - Colours 2 [EP] (2017) [MP3, 320 kbps CBR] Darkferse
3 | 0

0 | 293

0

02.06.2017 15:09

Зарубежный R'n'B (R'n'B, Soul, Pop) Daley - The Spectrum (2017) [MP3, 320 kbps CBR] Darkferse
3 | 0

0 | 304

2

26.08.2017 20:40

Зарубежный R'n'B (R'n'B, Soul) Elijah Blake - Audiology (2017) [MP3, 320 kbps CBR] Darkferse
6 | 1

0 | 172

1

05.09.2017 09:21

Зарубежный R'n'B (Lossless) (R'n'B, Soul, Neo-Soul) Maxwell - blackSUMMERS'night (2016) [FLAC (Tracks+.Cue), Lossless] Бишеп
3 | 0

0 | 413

1

17.11.2016 11:18

Зарубежный R'n'B (Lossless) (R'n'B, Soul, Hip-Hop) Iyeoka - Say Yes (2010) [FLAC (Tracks+.Cue), Lossless] Бишеп
31 | 1

0 | 583

2

16.11.2016 19:18

Зарубежный R'n'B (Lossless) (R'n'B, Soul, Blues) Joss Stone - The Soul Sessions Vol. 2 (Deluxe Edition) (2012) [FLAC (Image+.CUE), Lossless] Бишеп
11 | 2

1 | 2025

6

21.09.2013 14:06

Зарубежный R'n'B (Lossless) (R'n'B, Soul, Pop) Jason Derulo - Everything is 4 (2015) [FLAC (Image+.Cue), Lossless] Бишеп
5 | 1

0 | 600

1

06.11.2016 16:11


Яндекс.Метрика powered by Sphinx


В Н И М А Н И Е
Сайт не распространяет и не хранит электронные версии произведений, а лишь бесплатно и без коммерческой выгоды (не требуя взамен платы,
SMS и т.д.) предоставляет доступ к создаваемому пользователями каталогу ссылок на торрент-файлы, которые содержат только списки хеш-сумм.
Убедительная просьба с жалобами обращаться напрямую к пользователю, разместившему торрент файл.

Вверх