Loading...
Error

(Авторская песня) Александр Розенбаум - Настоящий солдат (2001) [FLAC (Image+.Cue), Lossless]

Статистика раздачи
Размер:  380 MB   |    Зарегистрирован:  1 год 6 месяцев   |    Скачан:  4 раза

Полного источника не было: 1 месяц 3 дня

Сидов:  0  |  0 KB/s  ]   Личеров:  0  |  0 KB/s  ]

* - сиды/пиры с внешних источников

   
 
Автор Сообщение

Бишеп Пол:Муж

14-Ноя-2016 11:42

Александр Розенбаум - Настоящий солдат

Жанр: Авторская песня
Год выпуска: 2001
Источник: CD
Производитель диска: А. Фрумин & S.T.M Records - CD-050/2001
Аудиокодек: FLAC
Тип рипа: Image+.CUE
Битрейт аудио: lossless
Продолжительность: 00:55:25


Треклист:
01. Вступление
02. Очень личное о войне
03. Письмо (памяти погибших подводников)
04. Бабья доля
05. Перья алые бинтов
06. Пухом небо тебе
07. На перевале дождь
08. Очередь за хлебом
09. Салют победы
10. Мы вернемся
11. Игра воображения
12. Настоящий солдат
13. Дым под потолком

Код:

Exact Audio Copy V1.0 beta 3 from 29. August 2011

Отчёт EAC об извлечении, выполненном 20. января 2012, 17:45

Александр Розенбаум / Настоящий солдат

Дисковод: PIONEER DVD-RW  DVR-118L   Adapter: 0  ID: 0

Режим чтения                 : Достоверность
Использование точного потока : Да
Отключение кэша аудио        : Да
Использование указателей C2  : Нет

Коррекция смещения при чтении                     : 6
Способность читать области Lead-in и Lead-out     : Нет
Заполнение пропущенных сэмплов тишиной            : Да
Удаление блоков с тишиной в начале и конце        : Нет
При вычислениях CRC использовались нулевые сэмплы : Да
Интерфейс                                         : Встроенный Win32-интерфейс для Win NT/2000

Выходной формат          : Пользовательский кодировщик
Выбранный битрейт        : 1024 kBit/s
Качество                 : Высокий
Добавление ID3-тега      : Нет
Утилита сжатия           : C:\Program Files\FLAC\flac.exe
Дополнительные параметры :  -V -8 -T "Date=%year%" -T "Genre=%genre%" %source%

TOC извлечённого CD

     Трек |   Старт  | Длительность | Начальный сектор | Конечный сектор
    ---------------------------------------------------------------------
       1  |  0:00.00 |    0:19.72   |           0      |       1496     
       2  |  0:19.72 |    5:34.40   |        1497      |      26586     
       3  |  5:54.37 |    5:21.10   |       26587      |      50671     
       4  | 11:15.47 |    5:35.70   |       50672      |      75866     
       5  | 16:51.42 |    3:11.71   |       75867      |      90262     
       6  | 20:03.38 |    4:04.70   |       90263      |     108632     
       7  | 24:08.33 |    4:04.74   |      108633      |     127006     
       8  | 28:13.32 |    4:16.02   |      127007      |     146208     
       9  | 32:29.34 |    3:29.43   |      146209      |     161926     
      10  | 35:59.02 |    3:05.65   |      161927      |     175866     
      11  | 39:04.67 |    3:27.24   |      175867      |     191415     
      12  | 42:32.16 |    7:10.51   |      191416      |     223716     
      13  | 49:42.67 |    5:42.41   |      223717      |     249407     

Характеристики диапазона извлечения и сообщения об ошибках

Выбранный диапазон

     Имя файла J:\Раздачи 3\Александр Розенбаум_Настоящий солдат_2001 г\Александр Розенбаум - Настоящий солдат.wav

     Пиковый уровень 96.6 %
     Скорость извлечения 1.8 X
     Качество диапазона 100.0 %
     CRC теста 42A09B19
     CRC копии 42A09B19
     Копирование... OK

Ошибок не произошло

 
AccurateRip: сводка
 
Трек  1  : извлечено точно (доверие 4)  [77D8D81D]  (AR v1)
Трек  2  : извлечено точно (доверие 4)  [08FDD9F7]  (AR v1)
Трек  3  : извлечено точно (доверие 4)  [63E6512D]  (AR v1)
Трек  4  : извлечено точно (доверие 4)  [95950501]  (AR v1)
Трек  5  : извлечено точно (доверие 4)  [6739617C]  (AR v1)
Трек  6  : извлечено точно (доверие 4)  [46766AE9]  (AR v1)
Трек  7  : извлечено точно (доверие 4)  [E10D9D4E]  (AR v1)
Трек  8  : извлечено точно (доверие 4)  [74C29301]  (AR v1)
Трек  9  : извлечено точно (доверие 4)  [9C10B24D]  (AR v1)
Трек 10  : извлечено точно (доверие 4)  [53AF0AE9]  (AR v1)
Трек 11  : извлечено точно (доверие 4)  [B29D2AD9]  (AR v1)
Трек 12  : извлечено точно (доверие 4)  [A02A8B43]  (AR v1)
Трек 13  : извлечено точно (доверие 4)  [1A263C88]  (AR v1)
 
Все треки извлечены точно

Конец отчёта

==== Контрольная сумма отчёта 560729A6539A4B215EF7321899B50E3B53D3CAAD11B125B9CAC064BF865F01DD ====

Код:

REM GENRE Chanson
REM DATE 2001
REM DISCID A30CFD0D
REM COMMENT "ExactAudioCopy v1.0b3"
PERFORMER "Александр Розенбаум"
TITLE "Настоящий солдат"
FILE "Александр Розенбаум - Настоящий солдат.flac" WAVE
  TRACK 01 AUDIO
    TITLE "Вступление"
    PERFORMER "Александр Розенбаум"
    FLAGS DCP
    INDEX 01 00:00:00
  TRACK 02 AUDIO
    TITLE "Очень личное о войне"
    PERFORMER "Александр Розенбаум"
    FLAGS DCP
    INDEX 00 00:18:27
    INDEX 01 00:19:72
  TRACK 03 AUDIO
    TITLE "Письмо (памяти погибших подводников)"
    PERFORMER "Александр Розенбаум"
    FLAGS DCP
    INDEX 00 05:52:67
    INDEX 01 05:54:37
  TRACK 04 AUDIO
    TITLE "Бабья доля"
    PERFORMER "Александр Розенбаум"
    FLAGS DCP
    INDEX 00 11:14:02
    INDEX 01 11:15:47
  TRACK 05 AUDIO
    TITLE "Перья алые бинтов"
    PERFORMER "Александр Розенбаум"
    FLAGS DCP
    INDEX 00 16:49:72
    INDEX 01 16:51:42
  TRACK 06 AUDIO
    TITLE "Пухом небо тебе "
    PERFORMER "Александр Розенбаум"
    FLAGS DCP
    INDEX 00 20:01:68
    INDEX 01 20:03:38
  TRACK 07 AUDIO
    TITLE "На перевале дождь"
    PERFORMER "Александр Розенбаум"
    FLAGS DCP
    INDEX 00 24:06:63
    INDEX 01 24:08:33
  TRACK 08 AUDIO
    TITLE "Очередь за хлебом"
    PERFORMER "Александр Розенбаум"
    FLAGS DCP
    INDEX 00 28:11:62
    INDEX 01 28:13:32
  TRACK 09 AUDIO
    TITLE "Салют победы"
    PERFORMER "Александр Розенбаум"
    FLAGS DCP
    INDEX 00 32:27:64
    INDEX 01 32:29:34
  TRACK 10 AUDIO
    TITLE "Мы вернемся"
    PERFORMER "Александр Розенбаум"
    FLAGS DCP
    INDEX 00 35:57:32
    INDEX 01 35:59:02
  TRACK 11 AUDIO
    TITLE "Игра воображения"
    PERFORMER "Александр Розенбаум"
    FLAGS DCP
    INDEX 00 39:03:22
    INDEX 01 39:04:67
  TRACK 12 AUDIO
    TITLE "Настоящий солдат"
    PERFORMER "Александр Розенбаум"
    FLAGS DCP
    INDEX 00 42:30:46
    INDEX 01 42:32:16
  TRACK 13 AUDIO
    TITLE "Дым под потолком"
    PERFORMER "Александр Розенбаум"
    FLAGS DCP
    INDEX 00 49:41:22
    INDEX 01 49:42:67

Этот торрент недоступен для скачивания без регистрации, однако доступен по публичной magnet-ссылке (источники с публичных трекеров). Перед использованием ссылки прочтите, пожалуйста Пользовательское соглашение, а также как можно дольше оставайтесь на раздаче! Для того, чтобы скачать сам торрент-файл (который видит больше источников), а также для того, чтобы поблагодарить релизера, вам необходимо зарегистрироваться. Если регистрироваться лень - вы можете также попробовать скачать релиз по нашим партнерским ссылкам ниже. Кроме того, зарегистрированным пользователям не показывается всплывающая реклама при скачивании.

[underverse.su].t73576.torrent
Трекер: Зарегистрирован   [ 14.11.2016 11:42 ]  

Статус: проверено (by Бишеп at 14.11.2016 11:42)
Поблагодарили: пока никто не поблагодарил...
Тип торрента: публичный - доступные источники с открытых трекеров: 
Размер: 380 MB (занимает 0,08 DVDR, для записи нужно 1 болванка DVDR/RW)
 
 
Похожие темы
Форум Тема Автор Торрент Отв. Посл. сооб.
Авторские песни, Барды (Авторская песня) Владимир Высоцкий - Полная коллекция (2009) [MP3, 320 kbps] Добрый жмот
6 | 2

11 | 5762

78

31.07.2013 07:22

Авторские песни, Барды (Авторская песня) Тимур Шаов - О чем молчал Герасим... (2010) [MP3, 320 kbps] KonKoSerg
11 | 0

4 | 2521

25

24.08.2013 06:03

Авторские песни, Барды (Авторская песня) Татьяна и Сергей Никитины - Городок, что я выдумал (2011) [MP3, 320 kbps] KonKoSerg
2 | 1

1 | 2786

39

11.05.2013 10:18

Авторские песни, Барды (Авторская песня) Владимир Высоцкий - Дискография [22 СD] (2001-2007) [MP3, 320 CBR] vovanig
2 | 0

2 | 3341

56

07.08.2014 19:18

Авторские песни, Барды (Авторская песня) Семён Слепаков - Альбом 1 (2012) [MP3, 320 kbps CBR] Бишеп
2 | 0

1 | 1971

53

11.05.2013 07:53

Авторские песни, Барды (Авторская песня, Фолк) Никола Емелин (Емеля) - Дискография (6 альбомов) (1989 - 2011) [MP3, 64-320 kbps] gregsib
11 | 0

1 | 1918

22

05.07.2013 18:48

Авторские песни, Барды (Авторская песня) Вячеслав Мясников (Уральские пельмени) - Сборник песен (2014) [MP3, 128-320 kbps CBR] terra07
1 | 0

1 | 2595

42

09.12.2015 14:37

Авторские песни, Барды (Авторская песня) Владимир Высоцкий - Спасибо, что живой. Песни из кинофильма... - и не только (2012) [MP3, 320 kbps CBR] valera87
1 | 0

0 | 1183

7

14.03.2015 16:31

Авторские песни, Барды (Lossless) (Авторская песня) Владимир Высоцкий - Grand Collection. Часть 1 / Часть 2 (2004) [FLAC (Tracks+.CUE), lossless] garry
1 | 0

1 | 1792

12

21.04.2012 07:06

# Авторские песни, Барды (Lossless) (Авторская песня) Евгений Баранник - На Прорезной (2010) [FLAC (Tracks+.CUE), lossless] garry
1 | 0

0 | 2375

1

20.02.2012 18:25


Яндекс.Метрика powered by Sphinx


В Н И М А Н И Е
Сайт не распространяет и не хранит электронные версии произведений, а лишь бесплатно и без коммерческой выгоды (не требуя взамен платы,
SMS и т.д.) предоставляет доступ к создаваемому пользователями каталогу ссылок на торрент-файлы, которые содержат только списки хеш-сумм.
Убедительная просьба с жалобами обращаться напрямую к пользователю, разместившему торрент файл.

Вверх