Loading...
Error

(Авторская песня) Олег Митяев - Позабытое чувство (2011) [FLAC (Image+.Cue), Lossless]

Статистика раздачи
Размер:  431 MB   |    Зарегистрирован:  1 год 6 месяцев   |    Скачан:  3 раза

Полного источника не было: 1 месяц 2 дня

Сидов:  0  |  0 KB/s  ]   Личеров:  0  |  0 KB/s  ]

* - сиды/пиры с внешних источников

   
 
Автор Сообщение

Бишеп Пол:Муж

13-Ноя-2016 20:03

Олег Митяев - Позабытое чувство

Жанр: Авторская песня
Год выпуска: 2011
Источник: CD
Производитель диска: Мистерия Звука - MZ 506-9/DG
Аудиокодек: FLAC
Тип рипа: Image+.CUE
Битрейт аудио: lossless
Продолжительность: 01:19:46


Треклист:
01. Позабытое чувство
02. Жестокое танго
03. Пассажир летящей пули
04. Старый двор
05. О чем размышляет мужчина
06. А жизнь она одна
07. Кортео
08. Петербуржский романс
09. Письмо
10. Художник
11. Родная станция
12. Рождество
13. Дружба
14. Сочи
15. Ленты
16. Две печали
17. Женщина - семейное существо

Код:

Exact Audio Copy V0.99 prebeta 5 from 4. May 2009

Отчёт EAC об извлечении, выполненном 24. декабря 2011, 18:19

Олег Митяев / Позабытое чувство

Дисковод: HL-DT-STDVD-RW GSA-H60L   Adapter: 0  ID: 1

Режим чтения                 : Достоверность
Использование точного потока : Да
Отключение кэша аудио        : Да
Использование указателей C2  : Нет

Коррекция смещения при чтении                     : 667
Способность читать области Lead-in и Lead-out     : Нет
Заполнение пропущенных сэмплов тишиной            : Да
Удаление блоков с тишиной в начале и конце        : Нет
При вычислениях CRC использовались нулевые сэмплы : Да
Интерфейс                                         : Встроенный Win32-интерфейс для Win NT/2000

Выходной формат : Внутренние WAV-операции
Формат сэмплов  : 44.100 Гц; 16 бит; стерео

TOC извлечённого CD

     Трек |   Старт  | Длительность | Начальный сектор | Конечный сектор
    ---------------------------------------------------------------------
       1  |  0:00.00 |    3:03.74   |           0      |      13798     
       2  |  3:03.74 |    4:34.29   |       13799      |      34377     
       3  |  7:38.28 |    3:20.71   |       34378      |      49448     
       4  | 10:59.24 |    3:03.21   |       49449      |      63194     
       5  | 14:02.45 |    3:47.22   |       63195      |      80241     
       6  | 17:49.67 |    3:13.43   |       80242      |      94759     
       7  | 21:03.35 |    3:57.22   |       94760      |     112556     
       8  | 25:00.57 |    4:42.23   |      112557      |     133729     
       9  | 29:43.05 |    2:16.09   |      133730      |     143938     
      10  | 31:59.14 |    2:44.20   |      143939      |     156258     
      11  | 34:43.34 |    3:44.54   |      156259      |     173112     
      12  | 38:28.13 |    4:15.74   |      173113      |     192311     
      13  | 42:44.12 |    3:04.74   |      192312      |     206185     
      14  | 45:49.11 |    3:46.30   |      206186      |     223165     
      15  | 49:35.41 |    2:35.30   |      223166      |     234820     
      16  | 52:10.71 |    3:47.37   |      234821      |     251882     
      17  | 55:58.33 |    2:18.46   |      251883      |     262278     

Характеристики диапазона извлечения и сообщения об ошибках

Выбранный диапазон

     Имя файла F:\Закачки\Позабытое чувство. Олег Митяев. 2011 - Nikolay_-_-\Музыка\Олег Митяев - Позабытое чувство.wav

     Пиковый уровень 99.9 %
     Качество диапазона 100.0 %
     CRC теста 9EA24DB6
     CRC копии 9EA24DB6
     Копирование... OK

Ошибок не произошло

 
AccurateRip: сводка
 
Трек  1  нет в базе данных
Трек  2  нет в базе данных
Трек  3  нет в базе данных
Трек  4  нет в базе данных
Трек  5  нет в базе данных
Трек  6  нет в базе данных
Трек  7  нет в базе данных
Трек  8  нет в базе данных
Трек  9  нет в базе данных
Трек 10  нет в базе данных
Трек 11  нет в базе данных
Трек 12  нет в базе данных
Трек 13  нет в базе данных
Трек 14  нет в базе данных
Трек 15  нет в базе данных
Трек 16  нет в базе данных
Трек 17  нет в базе данных
 
Ни одного трека нет в базе AccurateRip

Конец отчёта

Код:

REM GENRE Chanson
REM DATE 2011
REM DISCID DD0DA911
REM COMMENT "ExactAudioCopy v0.99pb5"
PERFORMER "Олег Митяев"
TITLE "Позабытое чувство"
FILE "Олег Митяев - Позабытое чувство.wav" WAVE
  TRACK 01 AUDIO
    TITLE "01. Позабытое чувство"
    PERFORMER "Олег Митяев"
    INDEX 01 00:00:00
  TRACK 02 AUDIO
    TITLE "02. Жестокое танго"
    PERFORMER "Олег Митяев"
    INDEX 00 03:01:70
    INDEX 01 03:03:74
  TRACK 03 AUDIO
    TITLE "03. Пассажир летящей пули"
    PERFORMER "Олег Митяев"
    INDEX 00 07:36:02
    INDEX 01 07:38:28
  TRACK 04 AUDIO
    TITLE "04. Старый двор"
    PERFORMER "Олег Митяев"
    INDEX 00 10:56:53
    INDEX 01 10:59:24
  TRACK 05 AUDIO
    TITLE "05. О чём размышляет мужчина"
    PERFORMER "Олег Митяев"
    INDEX 00 14:00:42
    INDEX 01 14:02:45
  TRACK 06 AUDIO
    TITLE "06. А жизнь она одна"
    PERFORMER "Олег Митяев"
    INDEX 00 17:47:18
    INDEX 01 17:49:67
  TRACK 07 AUDIO
    TITLE "07. Кортео"
    PERFORMER "Олег Митяев"
    INDEX 00 21:00:49
    INDEX 01 21:03:35
  TRACK 08 AUDIO
    TITLE "08. Петербуржский романс"
    PERFORMER "Олег Митяев"
    INDEX 00 24:58:52
    INDEX 01 25:00:57
  TRACK 09 AUDIO
    TITLE "09. Письмо"
    PERFORMER "Олег Митяев"
    INDEX 00 29:40:45
    INDEX 01 29:43:05
  TRACK 10 AUDIO
    TITLE "10. Художник"
    PERFORMER "Олег Митяев"
    INDEX 00 31:56:63
    INDEX 01 31:59:14
  TRACK 11 AUDIO
    TITLE "11. Родная станция"
    PERFORMER "Олег Митяев"
    INDEX 00 34:41:28
    INDEX 01 34:43:34
  TRACK 12 AUDIO
    TITLE "12. Рождество"
    PERFORMER "Олег Митяев"
    INDEX 00 38:25:52
    INDEX 01 38:28:13
  TRACK 13 AUDIO
    TITLE "13. Дружба"
    PERFORMER "Олег Митяев"
    INDEX 00 42:41:30
    INDEX 01 42:44:12
  TRACK 14 AUDIO
    TITLE "14. Сочи"
    PERFORMER "Олег Митяев"
    INDEX 00 45:46:23
    INDEX 01 45:49:11
  TRACK 15 AUDIO
    TITLE "15. Ленты"
    PERFORMER "Олег Митяев"
    INDEX 00 49:33:26
    INDEX 01 49:35:41
  TRACK 16 AUDIO
    TITLE "16. Две печали"
    PERFORMER "Олег Митяев"
    INDEX 00 52:08:67
    INDEX 01 52:10:71
  TRACK 17 AUDIO
    TITLE "17. Женщина - семейное существо"
    PERFORMER "Олег Митяев"
    INDEX 00 55:55:68
    INDEX 01 55:58:33

Этот торрент недоступен для скачивания без регистрации, однако доступен по публичной magnet-ссылке (источники с публичных трекеров). Перед использованием ссылки прочтите, пожалуйста Пользовательское соглашение, а также как можно дольше оставайтесь на раздаче! Для того, чтобы скачать сам торрент-файл (который видит больше источников), а также для того, чтобы поблагодарить релизера, вам необходимо зарегистрироваться. Если регистрироваться лень - вы можете также попробовать скачать релиз по нашим партнерским ссылкам ниже. Кроме того, зарегистрированным пользователям не показывается всплывающая реклама при скачивании.

[underverse.su].t73539.torrent
Трекер: Зарегистрирован   [ 13.11.2016 20:03 ]  

Статус: проверено (by Бишеп at 13.11.2016 20:04)
Поблагодарили: пока никто не поблагодарил...
Тип торрента: публичный - доступные источники с открытых трекеров: 
Размер: 431 MB (занимает 0,1 DVDR, для записи нужно 1 болванка DVDR/RW)
 
 
Похожие темы
Форум Тема Автор Торрент Отв. Посл. сооб.
Авторские песни, Барды (Авторская песня) Владимир Высоцкий - Полная коллекция (2009) [MP3, 320 kbps] Добрый жмот
6 | 2

11 | 5762

78

31.07.2013 07:22

Авторские песни, Барды (Авторская песня) Тимур Шаов - О чем молчал Герасим... (2010) [MP3, 320 kbps] KonKoSerg
11 | 0

4 | 2521

25

24.08.2013 06:03

Авторские песни, Барды (Авторская песня) Татьяна и Сергей Никитины - Городок, что я выдумал (2011) [MP3, 320 kbps] KonKoSerg
2 | 1

1 | 2786

39

11.05.2013 10:18

Авторские песни, Барды (Авторская песня) Владимир Высоцкий - Дискография [22 СD] (2001-2007) [MP3, 320 CBR] vovanig
2 | 0

2 | 3341

56

07.08.2014 19:18

Авторские песни, Барды (Авторская песня) Семён Слепаков - Альбом 1 (2012) [MP3, 320 kbps CBR] Бишеп
2 | 0

1 | 1971

53

11.05.2013 07:53

Авторские песни, Барды (Авторская песня, Фолк) Никола Емелин (Емеля) - Дискография (6 альбомов) (1989 - 2011) [MP3, 64-320 kbps] gregsib
11 | 0

1 | 1918

22

05.07.2013 18:48

Авторские песни, Барды (Авторская песня) Вячеслав Мясников (Уральские пельмени) - Сборник песен (2014) [MP3, 128-320 kbps CBR] terra07
1 | 0

1 | 2595

42

09.12.2015 14:37

Авторские песни, Барды (Авторская песня) Владимир Высоцкий - Спасибо, что живой. Песни из кинофильма... - и не только (2012) [MP3, 320 kbps CBR] valera87
1 | 0

0 | 1183

7

14.03.2015 16:31

Авторские песни, Барды (Lossless) (Авторская песня) Владимир Высоцкий - Grand Collection. Часть 1 / Часть 2 (2004) [FLAC (Tracks+.CUE), lossless] garry
1 | 0

1 | 1792

12

21.04.2012 07:06

# Авторские песни, Барды (Lossless) (Авторская песня) Евгений Баранник - На Прорезной (2010) [FLAC (Tracks+.CUE), lossless] garry
1 | 0

0 | 2375

1

20.02.2012 18:25


Яндекс.Метрика powered by Sphinx


В Н И М А Н И Е
Сайт не распространяет и не хранит электронные версии произведений, а лишь бесплатно и без коммерческой выгоды (не требуя взамен платы,
SMS и т.д.) предоставляет доступ к создаваемому пользователями каталогу ссылок на торрент-файлы, которые содержат только списки хеш-сумм.
Убедительная просьба с жалобами обращаться напрямую к пользователю, разместившему торрент файл.

Вверх