Loading...
Error

(Deep House) VA - Get Physical Music presents: Body Language - Volume 14 (Mixed by Andhim) (2014) [FLAC (Tracks+.Cue), Lossless]

Статистика раздачи
Размер:  438 MB   |    Зарегистрирован:  1 год 6 месяцев   |    Скачан:  1 раз

Полного источника не было: 1 месяц 14 дней

Сидов:  0  |  0 KB/s  ]   Личеров:  0  |  0 KB/s  ]

* - сиды/пиры с внешних источников

   
 
Автор Сообщение

Бишеп Пол:Муж

12-Ноя-2016 09:56

VA - Get Physical Music presents: Body Language - Volume 14 (Mixed by Andhim)

Жанр: Deep House
Год выпуска: 2014
Источник: CD
Производитель диска: Get Physical Music - GPMCD086
Аудиокодек: FLAC
Тип рипа: Tracks+.CUE
Битрейт аудио: lossless
Продолжительность: 01:12:12


Треклист:
01. Gold Panda - If You Knew (Reprise Long Live Take) (6:16)
02. Maribou State - Moon Circles (3:16)
03. Robag Wruhme - Pnom Gobal (3:02)
04. Axel Boman - Hello (4:08)
05. Ian Pooley - Kids Play (Stimming Remix) (5:28)
06. Super Flu - IDDQD (4:47)
07. Martin Waslewski - Dederon Pinafore (2:40)
08. Optick - Hopasa (ICS Remix) (4:16)
09. MarcAshken featuring SOS - Cat Walk (3:43)
10. 2raumwohnung - Bye Bye Bye (andhim Remix) (5:22)
11. Atjazz - It's Complete (Chateau Flight Darkside Mix) (4:05)
12. Bostro Pesopeo - Cheer Up (4:00)
13. andhim - Hausch (5:59)
14. HVOB - Always Like This (andhim Remix) (5:27)
15. Super Flu / Stereo Total - Gether (andhim Remix) / Liebe zu Dritt (9:36)

Код:

Exact Audio Copy V1.0 beta 3 from 29. August 2011

EAC extraction logfile from 6. May 2014, 22:14

Andhim / Body Language Vol. 14

Used drive  : ASUS    DRW-24B5ST   Adapter: 3  ID: 0

Read mode               : Secure
Utilize accurate stream : Yes
Defeat audio cache      : Yes
Make use of C2 pointers : No

Read offset correction                      : 6
Overread into Lead-In and Lead-Out          : No
Fill up missing offset samples with silence : Yes
Delete leading and trailing silent blocks   : No
Null samples used in CRC calculations       : Yes
Used interface                              : Native Win32 interface for Win NT & 2000
Gap handling                                : Appended to previous track

Used output format              : User Defined Encoder
Selected bitrate                : 896 kBit/s
Quality                         : High
Add ID3 tag                     : No
Command line compressor         : C:\Program Files (x86)\Exact Audio Copy\Flac\flac.exe
Additional command line options : -8 -V -T "ARTIST=%artist%" -T "TITLE=%title%" -T "ALBUM=%albumtitle%" -T "DATE=%year%" -T "TRACKNUMBER=%tracknr%" -T "GENRE=%genre%" -T "PERFORMER=%albuminterpret%" -T "COMPOSER=%composer%" %haslyrics%--tag-from-file=LYRICS="%lyricsfile%"%haslyrics% -T "ALBUMARTIST=%albumartist%" -T "DISCNUMBER=%cdnumber%" -T "TOTALDISCS=%totalcds%" -T "TOTALTRACKS=%numtracks%" -T "COMMENT=%comment%" %source% -o %dest%

TOC of the extracted CD

     Track |   Start  |  Length  | Start sector | End sector
    ---------------------------------------------------------
        1  |  0:00.00 |  6:16.74 |         0    |    28273   
        2  |  6:16.74 |  3:16.23 |     28274    |    42996   
        3  |  9:33.22 |  3:02.33 |     42997    |    56679   
        4  | 12:35.55 |  4:08.06 |     56680    |    75285   
        5  | 16:43.61 |  5:28.74 |     75286    |    99959   
        6  | 22:12.60 |  4:47.14 |     99960    |   121498   
        7  | 26:59.74 |  2:40.01 |    121499    |   133499   
        8  | 29:40.00 |  4:16.41 |    133500    |   152740   
        9  | 33:56.41 |  3:43.30 |    152741    |   169495   
       10  | 37:39.71 |  5:22.60 |    169496    |   193705   
       11  | 43:02.56 |  4:05.59 |    193706    |   212139   
       12  | 47:08.40 |  4:00.15 |    212140    |   230154   
       13  | 51:08.55 |  5:59.36 |    230155    |   257115   
       14  | 57:08.16 |  5:27.48 |    257116    |   281688   
       15  | 62:35.64 |  9:36.74 |    281689    |   324962   

Track  1

     Filename L:\MUSIC\VA - Andhim - Body Language Vol. 14 (2014) [CD-FLAC]\1-01. Gold Panda - If You Knew (Reprise Long Live Take).wav

     Pre-gap length  0:00:02.00

     Peak level 96.5 %
     Extraction speed 6.1 X
     Track quality 100.0 %
     Test CRC DD3D51A0
     Copy CRC DD3D51A0
     Track not present in AccurateRip database
     Copy OK

Track  2

     Filename L:\MUSIC\VA - Andhim - Body Language Vol. 14 (2014) [CD-FLAC]\1-02. Maribou State - Moon Circles.wav

     Peak level 96.5 %
     Extraction speed 6.3 X
     Track quality 100.0 %
     Test CRC 45470937
     Copy CRC 45470937
     Track not present in AccurateRip database
     Copy OK

Track  3

     Filename L:\MUSIC\VA - Andhim - Body Language Vol. 14 (2014) [CD-FLAC]\1-03. Robag Wruhme - Pnom Gobal.wav

     Peak level 96.5 %
     Extraction speed 6.5 X
     Track quality 100.0 %
     Test CRC 8E29506C
     Copy CRC 8E29506C
     Track not present in AccurateRip database
     Copy OK

Track  4

     Filename L:\MUSIC\VA - Andhim - Body Language Vol. 14 (2014) [CD-FLAC]\1-04. Axel Boman - Hello.wav

     Peak level 96.5 %
     Extraction speed 7.1 X
     Track quality 100.0 %
     Test CRC 9462FA2B
     Copy CRC 9462FA2B
     Track not present in AccurateRip database
     Copy OK

Track  5

     Filename L:\MUSIC\VA - Andhim - Body Language Vol. 14 (2014) [CD-FLAC]\1-05. Ian Pooley  - Kids Play (Stimming Remix).wav

     Copy aborted

Track  6

     Filename L:\MUSIC\VA - Andhim - Body Language Vol. 14 (2014) [CD-FLAC]\1-06. Super Flu - Iddqd.wav

     Peak level 96.5 %
     Extraction speed 7.0 X
     Track quality 99.9 %
     Test CRC 5DD4A4AA
     Copy CRC 5DD4A4AA
     Track not present in AccurateRip database
     Copy OK

Track  7

     Filename L:\MUSIC\VA - Andhim - Body Language Vol. 14 (2014) [CD-FLAC]\1-07. Martin Waslewski - Dederon Pinafore.wav

     Peak level 96.5 %
     Extraction speed 5.9 X
     Track quality 99.9 %
     Test CRC 05948522
     Copy CRC 05948522
     Track not present in AccurateRip database
     Copy OK

Track  8

     Filename L:\MUSIC\VA - Andhim - Body Language Vol. 14 (2014) [CD-FLAC]\1-08. Optick - Hopasa (ICS Remix).wav

     Peak level 96.5 %
     Extraction speed 8.9 X
     Track quality 100.0 %
     Test CRC 4128AAE6
     Copy CRC 4128AAE6
     Track not present in AccurateRip database
     Copy OK

Track  9

     Filename L:\MUSIC\VA - Andhim - Body Language Vol. 14 (2014) [CD-FLAC]\1-09. Marc Ashken - Cat Walk (Original Mix).wav

     Peak level 96.5 %
     Extraction speed 7.2 X
     Track quality 99.9 %
     Test CRC C0B9B912
     Copy CRC C0B9B912
     Track not present in AccurateRip database
     Copy OK

Track 10

     Filename L:\MUSIC\VA - Andhim - Body Language Vol. 14 (2014) [CD-FLAC]\1-10. 2raumwohnung - Bye Bye Bye (Andhim Remix).wav

     Peak level 96.5 %
     Extraction speed 9.8 X
     Track quality 100.0 %
     Test CRC CC77595A
     Copy CRC CC77595A
     Track not present in AccurateRip database
     Copy OK

Track 11

     Filename L:\MUSIC\VA - Andhim - Body Language Vol. 14 (2014) [CD-FLAC]\1-11. Atjazz - It's Complete (Chateau Flight Darkside Mix).wav

     Peak level 96.5 %
     Extraction speed 9.9 X
     Track quality 100.0 %
     Test CRC 7A918298
     Copy CRC 7A918298
     Track not present in AccurateRip database
     Copy OK

Track 12

     Filename L:\MUSIC\VA - Andhim - Body Language Vol. 14 (2014) [CD-FLAC]\1-12. Bostro Pesopeo - Cheer Up.wav

     Peak level 96.5 %
     Extraction speed 10.1 X
     Track quality 100.0 %
     Test CRC 5F9BAB91
     Copy CRC 5F9BAB91
     Track not present in AccurateRip database
     Copy OK

Track 13

     Filename L:\MUSIC\VA - Andhim - Body Language Vol. 14 (2014) [CD-FLAC]\1-13. Andhim - Hausch.wav

     Peak level 96.5 %
     Extraction speed 11.0 X
     Track quality 100.0 %
     Test CRC 459B4959
     Copy CRC 459B4959
     Track not present in AccurateRip database
     Copy OK

Track 14

     Filename L:\MUSIC\VA - Andhim - Body Language Vol. 14 (2014) [CD-FLAC]\1-14. Hvob - Always Like This (Andhim Remix).wav

     Peak level 96.5 %
     Extraction speed 9.5 X
     Track quality 99.9 %
     Test CRC F2D604C3
     Copy CRC F2D604C3
     Track not present in AccurateRip database
     Copy OK

Track 15

     Filename L:\MUSIC\VA - Andhim - Body Language Vol. 14 (2014) [CD-FLAC]\1-15. Super Flu - Gether (Andhim Remix).wav

     Peak level 96.5 %
     Extraction speed 12.1 X
     Track quality 100.0 %
     Test CRC 023C06E3
     Copy CRC 023C06E3
     Track not present in AccurateRip database
     Copy OK

14 track(s) not present in the AccurateRip database
 1 track(s) not fully ripped for AccurateRip lookup

No tracks could be verified as accurate

No errors occurred

End of status report

==== Log checksum 17E5E597DB8C10A127F303A428A0C6940B5A39C48D8D5C7F0A7B9A4A82D39ABE ====

------------------------------------------------------------

Exact Audio Copy V1.0 beta 3 from 29. August 2011

EAC extraction logfile from 6. May 2014, 23:39

Andhim / Body Language Vol. 14

Used drive  : PLEXTOR DVDR   PX-755A   Adapter: 5  ID: 0

Read mode               : Secure
Utilize accurate stream : Yes
Defeat audio cache      : Yes
Make use of C2 pointers : No

Read offset correction                      : 30
Overread into Lead-In and Lead-Out          : Yes
Fill up missing offset samples with silence : Yes
Delete leading and trailing silent blocks   : No
Null samples used in CRC calculations       : Yes
Used interface                              : Native Win32 interface for Win NT & 2000
Gap handling                                : Appended to previous track

Used output format              : User Defined Encoder
Selected bitrate                : 896 kBit/s
Quality                         : High
Add ID3 tag                     : No
Command line compressor         : C:\Program Files (x86)\Exact Audio Copy\Flac\flac.exe
Additional command line options : -8 -V -T "ARTIST=%artist%" -T "TITLE=%title%" -T "ALBUM=%albumtitle%" -T "DATE=%year%" -T "TRACKNUMBER=%tracknr%" -T "GENRE=%genre%" -T "PERFORMER=%albuminterpret%" -T "COMPOSER=%composer%" %haslyrics%--tag-from-file=LYRICS="%lyricsfile%"%haslyrics% -T "ALBUMARTIST=%albumartist%" -T "DISCNUMBER=%cdnumber%" -T "TOTALDISCS=%totalcds%" -T "TOTALTRACKS=%numtracks%" -T "COMMENT=%comment%" %source% -o %dest%

TOC of the extracted CD

     Track |   Start  |  Length  | Start sector | End sector
    ---------------------------------------------------------
        1  |  0:00.00 |  6:16.74 |         0    |    28273   
        2  |  6:16.74 |  3:16.23 |     28274    |    42996   
        3  |  9:33.22 |  3:02.33 |     42997    |    56679   
        4  | 12:35.55 |  4:08.06 |     56680    |    75285   
        5  | 16:43.61 |  5:28.74 |     75286    |    99959   
        6  | 22:12.60 |  4:47.14 |     99960    |   121498   
        7  | 26:59.74 |  2:40.01 |    121499    |   133499   
        8  | 29:40.00 |  4:16.41 |    133500    |   152740   
        9  | 33:56.41 |  3:43.30 |    152741    |   169495   
       10  | 37:39.71 |  5:22.60 |    169496    |   193705   
       11  | 43:02.56 |  4:05.59 |    193706    |   212139   
       12  | 47:08.40 |  4:00.15 |    212140    |   230154   
       13  | 51:08.55 |  5:59.36 |    230155    |   257115   
       14  | 57:08.16 |  5:27.48 |    257116    |   281688   
       15  | 62:35.64 |  9:36.74 |    281689    |   324962   

Track  5

     Filename L:\MUSIC\VA - Andhim - Body Language Vol. 14 (2014) [CD-FLAC]\1-05. Ian Pooley - Kids Play (Stimming Remix).wav

     Peak level 96.5 %
     Extraction speed 1.7 X
     Track quality 99.9 %
     Test CRC 29854EAD
     Copy CRC 29854EAD
     Track not present in AccurateRip database
     Copy OK

None of the tracks are present in the AccurateRip database

No errors occurred

End of status report

==== Log checksum 74EBC21B2C331F62E297957EC679A1A958CF63BC6CB494EEF610889F540F748E ====

Код:

REM GENRE "House, Deep House, Tech House"
REM DATE 2014
REM DISCID C710EC0F
REM COMMENT "ExactAudioCopy v1.0b3"
PERFORMER "Andhim"
TITLE "Body Language Vol. 14"
FILE "1-01. Gold Panda - If You Knew (Reprise Long Live Take).wav" WAVE
  TRACK 01 AUDIO
    TITLE "If You Knew (Reprise Long Live Take)"
    PERFORMER "Gold Panda"
    INDEX 01 00:00:00
FILE "1-02. Maribou State - Moon Circles.wav" WAVE
  TRACK 02 AUDIO
    TITLE "Moon Circles"
    PERFORMER "Maribou State"
    INDEX 01 00:00:00
FILE "1-03. Robag Wruhme - Pnom Gobal.wav" WAVE
  TRACK 03 AUDIO
    TITLE "Pnom Gobal"
    PERFORMER "Robag Wruhme"
    INDEX 01 00:00:00
FILE "1-04. Axel Boman - Hello.wav" WAVE
  TRACK 04 AUDIO
    TITLE "Hello"
    PERFORMER "Axel Boman"
    INDEX 01 00:00:00
FILE "1-05. Ian Pooley - Kids Play (Stimming Remix).wav" WAVE
  TRACK 05 AUDIO
    TITLE "Kids Play (Stimming Remix)"
    PERFORMER "Ian Pooley  "
    INDEX 01 00:00:00
FILE "1-06. Super Flu - Iddqd.wav" WAVE
  TRACK 06 AUDIO
    TITLE "Iddqd"
    PERFORMER "Super Flu"
    INDEX 01 00:00:00
FILE "1-07. Martin Waslewski - Dederon Pinafore.wav" WAVE
  TRACK 07 AUDIO
    TITLE "Dederon Pinafore"
    PERFORMER "Martin Waslewski"
    INDEX 01 00:00:00
FILE "1-08. Optick - Hopasa (ICS Remix).wav" WAVE
  TRACK 08 AUDIO
    TITLE "Hopasa (ICS Remix)"
    PERFORMER "Optick"
    INDEX 01 00:00:00
FILE "1-09. Marc Ashken - Cat Walk (Original Mix).wav" WAVE
  TRACK 09 AUDIO
    TITLE "Cat Walk (Original Mix)"
    PERFORMER "Marc Ashken"
    INDEX 01 00:00:00
FILE "1-10. 2raumwohnung - Bye Bye Bye (Andhim Remix).wav" WAVE
  TRACK 10 AUDIO
    TITLE "Bye Bye Bye (Andhim Remix)"
    PERFORMER "2raumwohnung"
    INDEX 01 00:00:00
FILE "1-11. Atjazz - It's Complete (Chateau Flight Darkside Mix).wav" WAVE
  TRACK 11 AUDIO
    TITLE "It's Complete (Chateau Flight Darkside Mix)"
    PERFORMER "Atjazz"
    INDEX 01 00:00:00
FILE "1-12. Bostro Pesopeo - Cheer Up.wav" WAVE
  TRACK 12 AUDIO
    TITLE "Cheer Up"
    PERFORMER "Bostro Pesopeo"
    INDEX 01 00:00:00
FILE "1-13. Andhim - Hausch.wav" WAVE
  TRACK 13 AUDIO
    TITLE "Hausch"
    PERFORMER "Andhim"
    INDEX 01 00:00:00
FILE "1-14. Hvob - Always Like This (Andhim Remix).wav" WAVE
  TRACK 14 AUDIO
    TITLE "Always Like This (Andhim Remix)"
    PERFORMER "Hvob"
    INDEX 01 00:00:00
FILE "1-15. Super Flu - Gether (Andhim Remix).wav" WAVE
  TRACK 15 AUDIO
    TITLE "Gether (Andhim Remix)"
    PERFORMER "Super Flu"
    INDEX 01 00:00:00

Этот торрент недоступен для скачивания без регистрации, однако доступен по публичной magnet-ссылке (источники с публичных трекеров). Перед использованием ссылки прочтите, пожалуйста Пользовательское соглашение, а также как можно дольше оставайтесь на раздаче! Для того, чтобы скачать сам торрент-файл (который видит больше источников), а также для того, чтобы поблагодарить релизера, вам необходимо зарегистрироваться. Если регистрироваться лень - вы можете также попробовать скачать релиз по нашим партнерским ссылкам ниже. Кроме того, зарегистрированным пользователям не показывается всплывающая реклама при скачивании.

[underverse.su].t73382.torrent
Трекер: Зарегистрирован   [ 12.11.2016 09:56 ]  

Статус: проверено (by Бишеп at 12.11.2016 09:56)
Поблагодарили: пока никто не поблагодарил...
Тип торрента: публичный - доступные источники с открытых трекеров: 
Размер: 438 MB (занимает 0,1 DVDR, для записи нужно 1 болванка DVDR/RW)
 
 
Похожие темы
Форум Тема Автор Торрент Отв. Посл. сооб.
House (Deep House, Techno) Grant - Cranks (2016) [MP3, 320 kbps] ANDRAKO
1 | 0

0 | 474

6

06.11.2016 08:52

House (Deep House, Tech House) Voyeur - I (2016) [MP3, 320 kbps] ANDRAKO
1 | 0

0 | 481

5

06.11.2016 08:54

House (Deep House, Club House, Nu-Disco) 2 Billion Beats - Be Nice To Each Other (2016) [MP3, 320 kbps] ANDRAKO
2 | 0

0 | 477

4

06.11.2016 08:49

House (Deep House, Indie Dance) Kungs - Layers (2016) [MP3, 320 kbps] ANDRAKO
13 | 9

0 | 939

4

29.03.2017 18:14

House (Deep House, Tech House) VA - Miami WMC 2017 Deephouse (2017) [MP3, 320 kbps CBR] Darkferse
2 | 0

0 | 604

4

14.03.2017 17:48

House (Deep House, Soulful House) Jayclectic - Our Story (2017) [MP3, 320 kbps CBR] Darkferse
1 | 0

0 | 524

2

14.03.2017 18:05

House (Deep House, Tech House, Techno) Klartraum - Enneagram Remixes (2017) [MP3, 320 kbps CBR] Darkferse
1 | 0

0 | 464

8

14.03.2017 18:20

House (Deep House) Lane 8 & Kidnap Kid - Aba (2017) [MP3, 320 kbps CBR] Darkferse
2 | 0

0 | 518

4

16.03.2017 13:06

House (Deep House, Techno) Falke - O.N.G. (2017) [MP3, 320 kbps CBR] Darkferse
2 | 0

0 | 529

5

20.03.2017 23:07

House (Deep House, Downtempo, Techno) Octo Octa - Where Are We Going? (2017) [MP3, 320 kbps CBR] Darkferse
7 | 0

0 | 637

5

25.03.2017 15:20

31-Янв-2018 21:16

Топик был перенесен из форума Сборники в форум Архив (HQ электронная музыка)


[cron robot]
 

Яндекс.Метрика powered by Sphinx


В Н И М А Н И Е
Сайт не распространяет и не хранит электронные версии произведений, а лишь бесплатно и без коммерческой выгоды (не требуя взамен платы,
SMS и т.д.) предоставляет доступ к создаваемому пользователями каталогу ссылок на торрент-файлы, которые содержат только списки хеш-сумм.
Убедительная просьба с жалобами обращаться напрямую к пользователю, разместившему торрент файл.

Вверх