Loading...
Error

(R'n'B) Raphael Saadiq - Stone Rollin' (2011) [FLAC (Tracks+.Cue) Lossless]

Статистика раздачи
Размер:  264 MB   |    Зарегистрирован:  1 год   |    Скачан:  1 раз

Полного источника не было: 18 дней

Сидов:  0  |  0 KB/s  ]   Личеров:  0  |  0 KB/s  ]

* - сиды/пиры с внешних источников

   
 
Автор Сообщение

Бишеп Пол:Муж

07-Ноя-2016 17:29

Raphael Saadiq - Stone Rollin'

Жанр: R'n'B
Год выпуска: 2011
Источник: CD
Производитель диска: Columbia
Аудиокодек: FLAC
Тип рипа: Tracks+.CUE
Битрейт аудио: lossless
Продолжительность: 00:43:15


Треклист:
01. Heart Attack
02. Go to Hell
03. Radio
04. Over You
05. Stone Rollin'
06. Day Dreams
07. Movin Down The Line
08. Just Dont
09. Good Man
10. The Answer

Код:

Exact Audio Copy V1.0 beta 1 from 15. November 2010

EAC extraction logfile from 3. May 2011, 18:22

Raphael Saadiq / Stone Rollin´

Used drive  : TSSTcorpCDDVDW SH-S223B   Adapter: 3  ID: 1

Read mode               : Secure
Utilize accurate stream : Yes
Defeat audio cache      : Yes
Make use of C2 pointers : No

Read offset correction                      : 6
Overread into Lead-In and Lead-Out          : No
Fill up missing offset samples with silence : Yes
Delete leading and trailing silent blocks   : No
Null samples used in CRC calculations       : Yes
Used interface                              : Native Win32 interface for Win NT & 2000
Gap handling                                : Appended to previous track

Used output format              : User Defined Encoder
Selected bitrate                : 128 kBit/s
Quality                         : High
Add ID3 tag                     : No
Command line compressor         : C:\Program Files (x86)\Exact Audio Copy\Flac\flac.exe
Additional command line options : -V -8 -T "artist=%a" -T "title=%t" -T "album=%g" -T "date=%y" -T "tracknumber=%n" -T "genre=%m" %s

TOC of the extracted CD

     Track |   Start  |  Length  | Start sector | End sector
    ---------------------------------------------------------
        1  |  0:00.00 |  3:03.68 |         0    |    13792   
        2  |  3:03.68 |  4:20.23 |     13793    |    33315   
        3  |  7:24.16 |  3:22.36 |     33316    |    48501   
        4  | 10:46.52 |  2:31.07 |     48502    |    59833   
        5  | 13:17.59 |  3:37.23 |     59834    |    76131   
        6  | 16:55.07 |  3:20.24 |     76132    |    91155   
        7  | 20:15.31 |  4:25.04 |     91156    |   111034   
        8  | 24:40.35 |  5:17.65 |    111035    |   134874   
        9  | 29:58.25 |  3:46.65 |    134875    |   151889   
       10  | 33:45.15 |  9:30.68 |    151890    |   194707   

Track  1

     Filename D:\WhatCD-rips\Raphael Saadiq - Stone Rollin´ (2011) - FLAC\01 - Heart Attack.wav

     Pre-gap length  0:00:02.00

     Peak level 98.8 %
     Extraction speed 4.2 X
     Track quality 100.0 %
     Test CRC D00E9AA5
     Copy CRC D00E9AA5
     Track not present in AccurateRip database
     Copy OK

Track  2

     Filename D:\WhatCD-rips\Raphael Saadiq - Stone Rollin´ (2011) - FLAC\02 - Go To Hell.wav

     Pre-gap length  0:00:00.30

     Peak level 98.8 %
     Extraction speed 3.9 X
     Track quality 99.9 %
     Test CRC 0EB53C0F
     Copy CRC 0EB53C0F
     Track not present in AccurateRip database
     Copy OK

Track  3

     Filename D:\WhatCD-rips\Raphael Saadiq - Stone Rollin´ (2011) - FLAC\03 - Radio.wav

     Pre-gap length  0:00:00.70

     Peak level 98.8 %
     Extraction speed 5.1 X
     Track quality 100.0 %
     Test CRC 11968605
     Copy CRC 11968605
     Track not present in AccurateRip database
     Copy OK

Track  4

     Filename D:\WhatCD-rips\Raphael Saadiq - Stone Rollin´ (2011) - FLAC\04 - Over You.wav

     Pre-gap length  0:00:01.20

     Peak level 98.8 %
     Extraction speed 3.7 X
     Track quality 99.9 %
     Test CRC C7832E6A
     Copy CRC C7832E6A
     Track not present in AccurateRip database
     Copy OK

Track  5

     Filename D:\WhatCD-rips\Raphael Saadiq - Stone Rollin´ (2011) - FLAC\05 - Stone Rollin’.wav

     Pre-gap length  0:00:01.20

     Peak level 98.8 %
     Extraction speed 5.6 X
     Track quality 100.0 %
     Test CRC 6D3D224F
     Copy CRC 6D3D224F
     Track not present in AccurateRip database
     Copy OK

Track  6

     Filename D:\WhatCD-rips\Raphael Saadiq - Stone Rollin´ (2011) - FLAC\06 - Day Dreams.wav

     Pre-gap length  0:00:01.00

     Peak level 98.8 %
     Extraction speed 5.9 X
     Track quality 100.0 %
     Test CRC 6378DEDC
     Copy CRC 6378DEDC
     Track not present in AccurateRip database
     Copy OK

Track  7

     Filename D:\WhatCD-rips\Raphael Saadiq - Stone Rollin´ (2011) - FLAC\07 - Movin' Down The Line.wav

     Pre-gap length  0:00:00.29

     Peak level 98.8 %
     Extraction speed 6.6 X
     Track quality 100.0 %
     Test CRC B43D504A
     Copy CRC B43D504A
     Track not present in AccurateRip database
     Copy OK

Track  8

     Filename D:\WhatCD-rips\Raphael Saadiq - Stone Rollin´ (2011) - FLAC\08 - Just Don’t.wav

     Pre-gap length  0:00:01.29

     Peak level 98.8 %
     Extraction speed 7.1 X
     Track quality 100.0 %
     Test CRC E6E0F3B7
     Copy CRC E6E0F3B7
     Track not present in AccurateRip database
     Copy OK

Track  9

     Filename D:\WhatCD-rips\Raphael Saadiq - Stone Rollin´ (2011) - FLAC\09 - Good Man.wav

     Pre-gap length  0:00:00.74

     Peak level 98.8 %
     Extraction speed 7.1 X
     Track quality 100.0 %
     Test CRC 4169930E
     Copy CRC 4169930E
     Track not present in AccurateRip database
     Copy OK

Track 10

     Filename D:\WhatCD-rips\Raphael Saadiq - Stone Rollin´ (2011) - FLAC\10 - The Answer.wav

     Pre-gap length  0:00:01.49

     Peak level 98.8 %
     Extraction speed 8.3 X
     Track quality 100.0 %
     Test CRC 59D976A3
     Copy CRC 59D976A3
     Accurately ripped (confidence 1)  [B19FF97F]
     Copy OK

 1 track(s) accurately ripped
 9 track(s) not present in the AccurateRip database

Some tracks could not be verified as accurate

No errors occurred

End of status report

==== Log checksum 1EA6647B49D85D2856DE9D76EC7BF128C5738FB12FBE7737442A19D64BA42397 ====

Код:

REM GENRE "Rhythmic Soul"
REM DATE 2011
REM DISCID 800A240A
REM COMMENT "ExactAudioCopy v1.0b1"
PERFORMER "Raphael Saadiq"
TITLE "Stone Rollin'"
FILE "01 - Heart Attack.wav" WAVE
  TRACK 01 AUDIO
    TITLE "Heart Attack"
    PERFORMER "Raphael Saadiq"
    INDEX 01 00:00:00
  TRACK 02 AUDIO
    TITLE "Go To Hell"
    PERFORMER "Raphael Saadiq"
    INDEX 00 03:03:38
FILE "02 - Go To Hell.wav" WAVE
    INDEX 01 00:00:00
  TRACK 03 AUDIO
    TITLE "Radio"
    PERFORMER "Raphael Saadiq"
    INDEX 00 04:19:28
FILE "03 - Radio.wav" WAVE
    INDEX 01 00:00:00
  TRACK 04 AUDIO
    TITLE "Over You"
    PERFORMER "Raphael Saadiq"
    INDEX 00 03:21:16
FILE "04 - Over You.wav" WAVE
    INDEX 01 00:00:00
  TRACK 05 AUDIO
    TITLE "Stone Rollin’"
    PERFORMER "Raphael Saadiq"
    INDEX 00 02:29:62
FILE "05 - Stone Rollin’.wav" WAVE
    INDEX 01 00:00:00
  TRACK 06 AUDIO
    TITLE "Day Dreams"
    PERFORMER "Raphael Saadiq"
    INDEX 00 03:36:23
FILE "06 - Day Dreams.wav" WAVE
    INDEX 01 00:00:00
  TRACK 07 AUDIO
    TITLE "Movin' Down The Line"
    PERFORMER "Raphael Saadiq"
    INDEX 00 03:19:70
FILE "07 - Movin' Down The Line.wav" WAVE
    INDEX 01 00:00:00
  TRACK 08 AUDIO
    TITLE "Just Don’t"
    PERFORMER "Raphael Saadiq"
    INDEX 00 04:23:50
FILE "08 - Just Don’t.wav" WAVE
    INDEX 01 00:00:00
  TRACK 09 AUDIO
    TITLE "Good Man"
    PERFORMER "Raphael Saadiq"
    INDEX 00 05:16:66
FILE "09 - Good Man.wav" WAVE
    INDEX 01 00:00:00
  TRACK 10 AUDIO
    TITLE "The Answer"
    PERFORMER "Raphael Saadiq"
    INDEX 00 03:45:16
FILE "10 - The Answer.wav" WAVE
    INDEX 01 00:00:00

Этот торрент недоступен для скачивания без регистрации, однако доступен по публичной magnet-ссылке (источники с публичных трекеров). Перед использованием ссылки прочтите, пожалуйста Пользовательское соглашение, а также как можно дольше оставайтесь на раздаче! Для того, чтобы скачать сам торрент-файл (который видит больше источников), а также для того, чтобы поблагодарить релизера, вам необходимо зарегистрироваться. Если регистрироваться лень - вы можете также попробовать скачать релиз по нашим партнерским ссылкам ниже.

[underverse.su].t72722.torrent
Трекер: Зарегистрирован   [ 07.11.2016 17:29 ]  

Статус: проверено (by Бишеп at 07.11.2016 17:29)
Поблагодарили: пока никто не поблагодарил...
Тип торрента: публичный - доступные источники с открытых трекеров: 
Размер: 264 MB (занимает 0,06 DVDR, для записи нужно 1 болванка DVDR/RW)
 
 

Яндекс.Метрика powered by Sphinx


В Н И М А Н И Е
Сайт не распространяет и не хранит электронные версии произведений, а лишь бесплатно и без коммерческой выгоды (не требуя взамен платы,
SMS и т.д.) предоставляет доступ к создаваемому пользователями каталогу ссылок на торрент-файлы, которые содержат только списки хеш-сумм.
Убедительная просьба с жалобами обращаться напрямую к пользователю, разместившему торрент файл.

Вверх