Loading...
Error

(Neo-Soul, R'n'B, Electronic) Kwabs - Love + War (2015) [FLAC (Image+.CUE), Lossless]

Статистика раздачи
Размер:  320 MB   |    Зарегистрирован:  1 год   |    Скачан:  1 раз

Полного источника не было: 1 месяц 2 дня

Сидов:  0  |  0 KB/s  ]   Личеров:  0  |  0 KB/s  ]

* - сиды/пиры с внешних источников

   
 
Автор Сообщение

Бишеп Пол:Муж

07-Ноя-2016 17:22

Kwabs - Love + War

Жанр: Neo-Soul, R'n'B, Electronic
Год выпуска: 2015
Источник: CD
Производитель диска: Atlantic Records - 0825646153213
Аудиокодек: FLAC
Тип рипа: Image+.CUE
Битрейт аудио: lossless
Продолжительность: 00:46:09


Треклист:
01. Love + War
02. Fight For Love
03. Walk
04. My Own
05. Look Over Your Shoulder
06. Perfect Ruin
07. Forgiven
08. Layback
09. Make You Mine
10. Father Figure
11. Wrong Or Right
12. Cheating On Me

Код:

Exact Audio Copy V1.1 from 23. June 2015

EAC extraction logfile from 13. September 2015, 23:30

Kwabs / Love + War

Used drive  : hp      CDDVDW SH-216DB   Adapter: 1  ID: 0

Read mode               : Secure
Utilize accurate stream : Yes
Defeat audio cache      : Yes
Make use of C2 pointers : No

Read offset correction                      : 6
Overread into Lead-In and Lead-Out          : No
Fill up missing offset samples with silence : Yes
Delete leading and trailing silent blocks   : No
Null samples used in CRC calculations       : Yes
Used interface                              : Native Win32 interface for Win NT & 2000

Used output format : Internal WAV Routines
Sample format      : 44.100 Hz; 16 Bit; Stereo

TOC of the extracted CD

     Track |   Start  |  Length  | Start sector | End sector
    ---------------------------------------------------------
        1  |  0:00.00 |  4:13.44 |         0    |    19018   
        2  |  4:13.44 |  3:40.30 |     19019    |    35548   
        3  |  7:53.74 |  3:36.31 |     35549    |    51779   
        4  | 11:30.30 |  3:49.43 |     51780    |    68997   
        5  | 15:19.73 |  3:02.54 |     68998    |    82701   
        6  | 18:22.52 |  4:11.55 |     82702    |   101581   
        7  | 22:34.32 |  3:52.65 |    101582    |   119046   
        8  | 26:27.22 |  3:55.37 |    119047    |   136708   
        9  | 30:22.59 |  3:44.47 |    136709    |   153555   
       10  | 34:07.31 |  3:20.52 |    153556    |   168607   
       11  | 37:28.08 |  3:39.43 |    168608    |   185075   
       12  | 41:07.51 |  5:01.38 |    185076    |   207688   

Range status and errors

Selected range

     Filename E:\POST\Post Nieuw\Kwabs - Love + War (EAC)\Kwabs - Love + War.wav

     Peak level 100.0 %
     Extraction speed 2.7 X
     Range quality 100.0 %
     Test CRC EBF13965
     Copy CRC EBF13965
     Copy OK

No errors occurred

 
AccurateRip summary
 
Track  1  not present in database
Track  2  not present in database
Track  3  not present in database
Track  4  not present in database
Track  5  not present in database
Track  6  not present in database
Track  7  not present in database
Track  8  not present in database
Track  9  not present in database
Track 10  not present in database
Track 11  not present in database
Track 12  not present in database
 
None of the tracks are present in the AccurateRip database

End of status report

Код:

REM GENRE R&B
REM DATE 2015
REM DISCID A30AD10C
REM COMMENT "ExactAudioCopy v1.1"
PERFORMER "Kwabs"
TITLE "Love + War"
FILE "Kwabs - Love + War.wav" WAVE
  TRACK 01 AUDIO
    TITLE "Love + War"
    PERFORMER "Kwabs"
    INDEX 01 00:00:00
  TRACK 02 AUDIO
    TITLE "Fight For Love"
    PERFORMER "Kwabs"
    INDEX 01 04:13:44
  TRACK 03 AUDIO
    TITLE "Walk"
    PERFORMER "Kwabs"
    INDEX 01 07:53:74
  TRACK 04 AUDIO
    TITLE "My Own"
    PERFORMER "Kwabs"
    INDEX 01 11:30:30
  TRACK 05 AUDIO
    TITLE "Look Over Your Shoulder"
    PERFORMER "Kwabs"
    INDEX 01 15:19:73
  TRACK 06 AUDIO
    TITLE "Perfect Ruin"
    PERFORMER "Kwabs"
    INDEX 01 18:22:52
  TRACK 07 AUDIO
    TITLE "Forgiven"
    PERFORMER "Kwabs"
    INDEX 01 22:34:32
  TRACK 08 AUDIO
    TITLE "Layback"
    PERFORMER "Kwabs"
    INDEX 01 26:27:22
  TRACK 09 AUDIO
    TITLE "Make You Mine"
    PERFORMER "Kwabs"
    INDEX 01 30:22:59
  TRACK 10 AUDIO
    TITLE "Father Figure"
    PERFORMER "Kwabs"
    INDEX 01 34:07:31
  TRACK 11 AUDIO
    TITLE "Wrong Or Right"
    PERFORMER "Kwabs"
    INDEX 01 37:28:08
  TRACK 12 AUDIO
    TITLE "Cheating On Me"
    PERFORMER "Kwabs"
    INDEX 01 41:07:51

Этот торрент недоступен для скачивания без регистрации, однако доступен по публичной magnet-ссылке (источники с публичных трекеров). Перед использованием ссылки прочтите, пожалуйста Пользовательское соглашение, а также как можно дольше оставайтесь на раздаче! Для того, чтобы скачать сам торрент-файл (который видит больше источников), а также для того, чтобы поблагодарить релизера, вам необходимо зарегистрироваться. Если регистрироваться лень - вы можете также попробовать скачать релиз по нашим партнерским ссылкам ниже.

[underverse.su].t72720.torrent
Трекер: Зарегистрирован   [ 07.11.2016 17:22 ]  

Статус: проверено (by Бишеп at 07.11.2016 17:23)
Поблагодарили: пока никто не поблагодарил...
Тип торрента: публичный - доступные источники с открытых трекеров: 
Размер: 320 MB (занимает 0,07 DVDR, для записи нужно 1 болванка DVDR/RW)
 
 

Яндекс.Метрика powered by Sphinx


В Н И М А Н И Е
Сайт не распространяет и не хранит электронные версии произведений, а лишь бесплатно и без коммерческой выгоды (не требуя взамен платы,
SMS и т.д.) предоставляет доступ к создаваемому пользователями каталогу ссылок на торрент-файлы, которые содержат только списки хеш-сумм.
Убедительная просьба с жалобами обращаться напрямую к пользователю, разместившему торрент файл.

Вверх