Loading...
Error

(R'n'B, Pop, Soul) Emeli Sande - Our Version of Events (2012) [FLAC (Tracks+.Cue), Lossless]

Статистика раздачи
Размер:  300 MB   |    Зарегистрирован:  1 год   |    Скачан:  1 раз

Полного источника не было: 14 дней

Сидов:  0  |  0 KB/s  ]   Личеров:  3  |  0 KB/s  ]

* - сиды/пиры с внешних источников

   
 
Автор Сообщение

Бишеп Пол:Муж

07-Ноя-2016 17:07

Emeli Sande - Our Version of Events

Жанр: R'n'B, Pop, Soul
Год выпуска: 2012
Источник: CD
Производитель диска: Virgin Records - CDV3094/5099967896820
Аудиокодек: FLAC
Тип рипа: Tracks+.CUE
Битрейт аудио: lossless
Продолжительность: 00:49:06


Треклист:
01. Heaven (4:13)
02. My Kind of Love (3:18)
03. Where I Sleep (2:11)
04. Mountains (4:11)
05. Clown (3:41)
06. Daddy (feat. Naughty Boy) (3:08)
07. Maybe (3:47)
08. Suitcase (3:07)
09. Breaking the Law (2:56)
10. Next to Me (3:17)
11. River (4:40)
12. Lifetime (2:54)
13. Hope (2:58)
14. Read All About It (Part III) (Bonus Track) (4:45)

Код:

Exact Audio Copy V1.0 beta 3 from 29. August 2011

EAC extraction logfile from 12. March 2012, 15:28

Emeli Sandé / Our Version of Events

Used drive  : HL-DT-STDVDRAM GH60N   Adapter: 0  ID: 1

Read mode               : Secure
Utilize accurate stream : Yes
Defeat audio cache      : Yes
Make use of C2 pointers : No

Read offset correction                      : 667
Overread into Lead-In and Lead-Out          : No
Fill up missing offset samples with silence : Yes
Delete leading and trailing silent blocks   : No
Null samples used in CRC calculations       : Yes
Used interface                              : Native Win32 interface for Win NT & 2000
Gap handling                                : Appended to previous track

Used output format              : User Defined Encoder
Selected bitrate                : 1024 kBit/s
Quality                         : High
Add ID3 tag                     : No
Command line compressor         : C:\Program Files (x86)\FLAC\flac.exe
Additional command line options : -8 -V -T "ARTIST=%artist%" -T "TITLE=%title%" -T "ALBUM=%albumtitle%" -T "DATE=%year%" -T "TRACKNUMBER=%tracknr%" -T "GENRE=%genre%" -T "PERFORMER=%albuminterpret%" -T "COMPOSER=%composer%" %haslyrics%--tag-from-file=LYRICS="%lyricsfile%"%haslyrics% -T "ALBUMARTIST=%albumartist%" -T "DISCNUMBER=%cdnumber%" -T "TOTALDISCS=%totalcds%" -T "TOTALTRACKS=%numtracks%" -T "COMMENT=%comment%" %source% -o %dest%

TOC of the extracted CD

     Track |   Start  |  Length  | Start sector | End sector
    ---------------------------------------------------------
        1  |  0:00.00 |  4:12.59 |         0    |    18958   
        2  |  4:12.59 |  3:18.07 |     18959    |    33815   
        3  |  7:30.66 |  2:11.33 |     33816    |    43673   
        4  |  9:42.24 |  4:10.66 |     43674    |    62489   
        5  | 13:53.15 |  3:41.10 |     62490    |    79074   
        6  | 17:34.25 |  3:08.34 |     79075    |    93208   
        7  | 20:42.59 |  3:47.20 |     93209    |   110253   
        8  | 24:30.04 |  3:06.64 |    110254    |   124267   
        9  | 27:36.68 |  2:55.56 |    124268    |   137448   
       10  | 30:32.49 |  3:16.56 |    137449    |   152204   
       11  | 33:49.30 |  4:39.54 |    152205    |   173183   
       12  | 38:29.09 |  2:53.53 |    173184    |   186211   
       13  | 41:22.62 |  2:58.20 |    186212    |   199581   
       14  | 44:21.07 |  4:44.50 |    199582    |   220931   

Track  1

     Filename C:\Users\Alec\Uploads\01 - Emeli Sandé - Heaven.wav

     Pre-gap length  0:00:02.00

     Peak level 100.0 %
     Extraction speed 1.1 X
     Track quality 100.0 %
     Test CRC 8F8A1579
     Copy CRC 8F8A1579
     Accurately ripped (confidence 4)  [257F515E]  (AR v2)
     Copy OK

Track  2

     Filename C:\Users\Alec\Uploads\02 - Emeli Sandé - My Kind of Love.wav

     Peak level 100.0 %
     Extraction speed 1.1 X
     Track quality 100.0 %
     Test CRC 3F612DE8
     Copy CRC 3F612DE8
     Accurately ripped (confidence 4)  [F06269F8]  (AR v2)
     Copy OK

Track  3

     Filename C:\Users\Alec\Uploads\03 - Emeli Sandé - Where I Sleep.wav

     Pre-gap length  0:00:00.64

     Peak level 100.0 %
     Extraction speed 0.9 X
     Track quality 99.9 %
     Test CRC C9F7A05C
     Copy CRC C9F7A05C
     Accurately ripped (confidence 4)  [DFFC0DCB]  (AR v2)
     Copy OK

Track  4

     Filename C:\Users\Alec\Uploads\04 - Emeli Sandé - Mountains.wav

     Peak level 100.0 %
     Extraction speed 1.3 X
     Track quality 100.0 %
     Test CRC 4F2503C0
     Copy CRC 4F2503C0
     Accurately ripped (confidence 4)  [E55B74E2]  (AR v2)
     Copy OK

Track  5

     Filename C:\Users\Alec\Uploads\05 - Emeli Sandé - Clown.wav

     Pre-gap length  0:00:01.18

     Peak level 100.0 %
     Extraction speed 1.4 X
     Track quality 100.0 %
     Test CRC 60584CBF
     Copy CRC 60584CBF
     Accurately ripped (confidence 4)  [354AF100]  (AR v2)
     Copy OK

Track  6

     Filename C:\Users\Alec\Uploads\06 - Emeli SandéFeaturingNaughty Boy - Daddy.wav

     Peak level 100.0 %
     Extraction speed 1.4 X
     Track quality 100.0 %
     Test CRC 91E6F603
     Copy CRC 91E6F603
     Accurately ripped (confidence 4)  [3DDB8EE2]  (AR v2)
     Copy OK

Track  7

     Filename C:\Users\Alec\Uploads\07 - Emeli Sandé - Maybe.wav

     Peak level 91.2 %
     Extraction speed 1.5 X
     Track quality 100.0 %
     Test CRC E3347165
     Copy CRC E3347165
     Accurately ripped (confidence 4)  [3CC78E16]  (AR v2)
     Copy OK

Track  8

     Filename C:\Users\Alec\Uploads\08 - Emeli Sandé - Suitcase.wav

     Pre-gap length  0:00:00.53

     Peak level 100.0 %
     Extraction speed 1.5 X
     Track quality 100.0 %
     Test CRC C22B85DC
     Copy CRC C22B85DC
     Accurately ripped (confidence 4)  [28FA90FE]  (AR v2)
     Copy OK

Track  9

     Filename C:\Users\Alec\Uploads\09 - Emeli Sandé - Breaking the Law.wav

     Pre-gap length  0:00:00.34

     Peak level 100.0 %
     Extraction speed 1.6 X
     Track quality 100.0 %
     Test CRC 3DFEA506
     Copy CRC 3DFEA506
     Accurately ripped (confidence 4)  [95B6D36F]  (AR v2)
     Copy OK

Track 10

     Filename C:\Users\Alec\Uploads\10 - Emeli Sandé - Next to Me.wav

     Pre-gap length  0:00:01.37

     Peak level 100.0 %
     Extraction speed 1.7 X
     Track quality 100.0 %
     Test CRC 3878C2A4
     Copy CRC 3878C2A4
     Accurately ripped (confidence 4)  [5AA44293]  (AR v2)
     Copy OK

Track 11

     Filename C:\Users\Alec\Uploads\11 - Emeli Sandé - River.wav

     Pre-gap length  0:00:01.66

     Peak level 100.0 %
     Extraction speed 1.8 X
     Track quality 100.0 %
     Test CRC 675B637F
     Copy CRC 675B637F
     Accurately ripped (confidence 4)  [BDDB4AA1]  (AR v2)
     Copy OK

Track 12

     Filename C:\Users\Alec\Uploads\12 - Emeli Sandé - Lifetime.wav

     Peak level 100.0 %
     Extraction speed 1.8 X
     Track quality 100.0 %
     Test CRC 8959D8DD
     Copy CRC 8959D8DD
     Accurately ripped (confidence 4)  [7F22E7DA]  (AR v2)
     Copy OK

Track 13

     Filename C:\Users\Alec\Uploads\13 - Emeli Sandé - Hope.wav

     Peak level 100.0 %
     Extraction speed 1.6 X
     Track quality 99.9 %
     Test CRC 644A39F0
     Copy CRC 644A39F0
     Accurately ripped (confidence 4)  [73D8B9A0]  (AR v2)
     Copy OK

Track 14

     Filename C:\Users\Alec\Uploads\14 - Emeli Sandé - Read All About It (Part III).wav

     Peak level 100.0 %
     Extraction speed 2.1 X
     Track quality 100.0 %
     Test CRC BCD45593
     Copy CRC BCD45593
     Accurately ripped (confidence 3)  [6A2178A8]  (AR v2)
     Copy OK

All tracks accurately ripped

No errors occurred

End of status report

---- CUETools DB Plugin V2.1.3

[CTDB TOCID: mUv9D0KeGe50mnosizORn8HChvc-] found, Submit result: mUv9D0KeGe50mnosizORn8HChvc- has been confirmed
[195e9e7a] (12/12) Accurately ripped

==== Log checksum 187ACA181BA90B86ECFBC9180960286F9293CB81277C8A59BC78BF9FC186F5F4 ====

------------------------------------------------------------

Exact Audio Copy V1.0 beta 3 from 29. August 2011

EAC extraction logfile from 12. March 2012, 15:29

Emeli Sandé / Our Version of Events

Used drive  : HL-DT-STDVDRAM GH60N   Adapter: 0  ID: 1

Read mode               : Secure
Utilize accurate stream : Yes
Defeat audio cache      : Yes
Make use of C2 pointers : No

Read offset correction                      : 667
Overread into Lead-In and Lead-Out          : No
Fill up missing offset samples with silence : Yes
Delete leading and trailing silent blocks   : No
Null samples used in CRC calculations       : Yes
Used interface                              : Native Win32 interface for Win NT & 2000
Gap handling                                : Appended to previous track

Used output format              : User Defined Encoder
Selected bitrate                : 1024 kBit/s
Quality                         : High
Add ID3 tag                     : No
Command line compressor         : C:\Program Files (x86)\FLAC\flac.exe
Additional command line options : -8 -V -T "ARTIST=%artist%" -T "TITLE=%title%" -T "ALBUM=%albumtitle%" -T "DATE=%year%" -T "TRACKNUMBER=%tracknr%" -T "GENRE=%genre%" -T "PERFORMER=%albuminterpret%" -T "COMPOSER=%composer%" %haslyrics%--tag-from-file=LYRICS="%lyricsfile%"%haslyrics% -T "ALBUMARTIST=%albumartist%" -T "DISCNUMBER=%cdnumber%" -T "TOTALDISCS=%totalcds%" -T "TOTALTRACKS=%numtracks%" -T "COMMENT=%comment%" %source% -o %dest%

TOC of the extracted CD

     Track |   Start  |  Length  | Start sector | End sector
    ---------------------------------------------------------
        1  |  0:00.00 |  4:12.59 |         0    |    18958   
        2  |  4:12.59 |  3:18.07 |     18959    |    33815   
        3  |  7:30.66 |  2:11.33 |     33816    |    43673   
        4  |  9:42.24 |  4:10.66 |     43674    |    62489   
        5  | 13:53.15 |  3:41.10 |     62490    |    79074   
        6  | 17:34.25 |  3:08.34 |     79075    |    93208   
        7  | 20:42.59 |  3:47.20 |     93209    |   110253   
        8  | 24:30.04 |  3:06.64 |    110254    |   124267   
        9  | 27:36.68 |  2:55.56 |    124268    |   137448   
       10  | 30:32.49 |  3:16.56 |    137449    |   152204   
       11  | 33:49.30 |  4:39.54 |    152205    |   173183   
       12  | 38:29.09 |  2:53.53 |    173184    |   186211   
       13  | 41:22.62 |  2:58.20 |    186212    |   199581   
       14  | 44:21.07 |  4:44.50 |    199582    |   220931   

Track  1

     Filename C:\Users\Alec\Uploads\01 - Emeli Sandé - Heaven.wav

     Pre-gap length  0:00:02.00

     Peak level 100.0 %
     Extraction speed 1.1 X
     Track quality 100.0 %
     Test CRC 8F8A1579
     Copy CRC 8F8A1579
     Accurately ripped (confidence 4)  [257F515E]  (AR v2)
     Copy OK

Track  2

     Filename C:\Users\Alec\Uploads\02 - Emeli Sandé - My Kind of Love.wav

     Peak level 100.0 %
     Extraction speed 1.1 X
     Track quality 100.0 %
     Test CRC 3F612DE8
     Copy CRC 3F612DE8
     Accurately ripped (confidence 4)  [F06269F8]  (AR v2)
     Copy OK

Track  3

     Filename C:\Users\Alec\Uploads\03 - Emeli Sandé - Where I Sleep.wav

     Pre-gap length  0:00:00.64

     Peak level 100.0 %
     Extraction speed 0.9 X
     Track quality 99.9 %
     Test CRC C9F7A05C
     Copy CRC C9F7A05C
     Accurately ripped (confidence 4)  [DFFC0DCB]  (AR v2)
     Copy OK

Track  4

     Filename C:\Users\Alec\Uploads\04 - Emeli Sandé - Mountains.wav

     Peak level 100.0 %
     Extraction speed 1.3 X
     Track quality 100.0 %
     Test CRC 4F2503C0
     Copy CRC 4F2503C0
     Accurately ripped (confidence 4)  [E55B74E2]  (AR v2)
     Copy OK

Track  5

     Filename C:\Users\Alec\Uploads\05 - Emeli Sandé - Clown.wav

     Pre-gap length  0:00:01.18

     Peak level 100.0 %
     Extraction speed 1.4 X
     Track quality 100.0 %
     Test CRC 60584CBF
     Copy CRC 60584CBF
     Accurately ripped (confidence 4)  [354AF100]  (AR v2)
     Copy OK

Track  6

     Filename C:\Users\Alec\Uploads\06 - Emeli SandéFeaturingNaughty Boy - Daddy.wav

     Peak level 100.0 %
     Extraction speed 1.4 X
     Track quality 100.0 %
     Test CRC 91E6F603
     Copy CRC 91E6F603
     Accurately ripped (confidence 4)  [3DDB8EE2]  (AR v2)
     Copy OK

Track  7

     Filename C:\Users\Alec\Uploads\07 - Emeli Sandé - Maybe.wav

     Peak level 91.2 %
     Extraction speed 1.5 X
     Track quality 100.0 %
     Test CRC E3347165
     Copy CRC E3347165
     Accurately ripped (confidence 4)  [3CC78E16]  (AR v2)
     Copy OK

Track  8

     Filename C:\Users\Alec\Uploads\08 - Emeli Sandé - Suitcase.wav

     Pre-gap length  0:00:00.53

     Peak level 100.0 %
     Extraction speed 1.5 X
     Track quality 100.0 %
     Test CRC C22B85DC
     Copy CRC C22B85DC
     Accurately ripped (confidence 4)  [28FA90FE]  (AR v2)
     Copy OK

Track  9

     Filename C:\Users\Alec\Uploads\09 - Emeli Sandé - Breaking the Law.wav

     Pre-gap length  0:00:00.34

     Peak level 100.0 %
     Extraction speed 1.6 X
     Track quality 100.0 %
     Test CRC 3DFEA506
     Copy CRC 3DFEA506
     Accurately ripped (confidence 4)  [95B6D36F]  (AR v2)
     Copy OK

Track 10

     Filename C:\Users\Alec\Uploads\10 - Emeli Sandé - Next to Me.wav

     Pre-gap length  0:00:01.37

     Peak level 100.0 %
     Extraction speed 1.7 X
     Track quality 100.0 %
     Test CRC 3878C2A4
     Copy CRC 3878C2A4
     Accurately ripped (confidence 4)  [5AA44293]  (AR v2)
     Copy OK

Track 11

     Filename C:\Users\Alec\Uploads\11 - Emeli Sandé - River.wav

     Pre-gap length  0:00:01.66

     Peak level 100.0 %
     Extraction speed 1.8 X
     Track quality 100.0 %
     Test CRC 675B637F
     Copy CRC 675B637F
     Accurately ripped (confidence 4)  [BDDB4AA1]  (AR v2)
     Copy OK

Track 12

     Filename C:\Users\Alec\Uploads\12 - Emeli Sandé - Lifetime.wav

     Peak level 100.0 %
     Extraction speed 1.8 X
     Track quality 100.0 %
     Test CRC 8959D8DD
     Copy CRC 8959D8DD
     Accurately ripped (confidence 4)  [7F22E7DA]  (AR v2)
     Copy OK

Track 13

     Filename C:\Users\Alec\Uploads\13 - Emeli Sandé - Hope.wav

     Peak level 100.0 %
     Extraction speed 1.6 X
     Track quality 99.9 %
     Test CRC 644A39F0
     Copy CRC 644A39F0
     Accurately ripped (confidence 4)  [73D8B9A0]  (AR v2)
     Copy OK

Track 14

     Filename C:\Users\Alec\Uploads\14 - Emeli Sandé - Read All About It (Part III).wav

     Peak level 100.0 %
     Extraction speed 2.1 X
     Track quality 100.0 %
     Test CRC BCD45593
     Copy CRC BCD45593
     Accurately ripped (confidence 3)  [6A2178A8]  (AR v2)
     Copy OK

All tracks accurately ripped

No errors occurred

End of status report

---- CUETools DB Plugin V2.1.3

[CTDB TOCID: mUv9D0KeGe50mnosizORn8HChvc-] found, Submit result: mUv9D0KeGe50mnosizORn8HChvc- has been confirmed
[195e9e7a] (12/12) Accurately ripped

==== Log checksum 7E4A5FD027CA170F441243D7180D9D8992313B065601764CCC54D5EF85E21CCF ====

Код:

REM GENRE Pop
REM DATE 2012
REM DISCID B20B810E
REM COMMENT "ExactAudioCopy v1.0b3"
PERFORMER "Emeli Sande"
TITLE "Our Version of Events"
FILE "01 - Emeli Sande - Heaven.wav" WAVE
  TRACK 01 AUDIO
    TITLE "Heaven"
    PERFORMER "Emeli Sande"
    ISRC GBAAA1100192
    INDEX 01 00:00:00
FILE "02 - Emeli Sande - My Kind of Love.wav" WAVE
  TRACK 02 AUDIO
    TITLE "My Kind of Love"
    PERFORMER "Emeli Sande"
    ISRC GBAAA1200007
    INDEX 01 00:00:00
  TRACK 03 AUDIO
    TITLE "Where I Sleep"
    PERFORMER "Emeli Sande"
    ISRC GBAAA1200008
    INDEX 00 03:17:34
FILE "03 - Emeli Sande - Where I Sleep.wav" WAVE
    INDEX 01 00:00:00
FILE "04 - Emeli Sande - Mountains.wav" WAVE
  TRACK 04 AUDIO
    TITLE "Mountains"
    PERFORMER "Emeli Sande"
    ISRC GBAAA1200009
    INDEX 01 00:00:00
  TRACK 05 AUDIO
    TITLE "Clown"
    PERFORMER "Emeli Sande"
    ISRC GBAAA1200010
    INDEX 00 04:09:52
FILE "05 - Emeli Sande - Clown.wav" WAVE
    INDEX 01 00:00:00
FILE "06 - Emeli Sande - Daddy (feat. Naughty Boy).wav" WAVE
  TRACK 06 AUDIO
    TITLE "Daddy"
    PERFORMER "Emeli Sande"
    ISRC GBAAA1100415
    INDEX 01 00:00:00
FILE "07 - Emeli Sande - Maybe.wav" WAVE
  TRACK 07 AUDIO
    TITLE "Maybe"
    PERFORMER "Emeli Sande"
    ISRC GBAAA1200012
    INDEX 01 00:00:00
  TRACK 08 AUDIO
    TITLE "Suitcase"
    PERFORMER "Emeli Sande"
    ISRC GBAAA1200013
    INDEX 00 03:46:55
FILE "08 - Emeli Sande - Suitcase.wav" WAVE
    INDEX 01 00:00:00
  TRACK 09 AUDIO
    TITLE "Breaking the Law"
    PERFORMER "Emeli Sande"
    ISRC GBAAA1200014
    INDEX 00 03:06:38
FILE "09 - Emeli Sande - Breaking the Law.wav" WAVE
    INDEX 01 00:00:00
  TRACK 10 AUDIO
    TITLE "Next to Me"
    PERFORMER "Emeli Sande"
    ISRC GBAAA1200003
    INDEX 00 02:54:28
FILE "10 - Emeli Sande - Next to Me.wav" WAVE
    INDEX 01 00:00:00
  TRACK 11 AUDIO
    TITLE "River"
    PERFORMER "Emeli Sande"
    ISRC GBAAA1200015
    INDEX 00 03:15:06
FILE "11 - Emeli Sande - River.wav" WAVE
    INDEX 01 00:00:00
FILE "12 - Emeli Sande - Lifetime.wav" WAVE
  TRACK 12 AUDIO
    TITLE "Lifetime"
    PERFORMER "Emeli Sande"
    ISRC GBAAA1200016
    INDEX 01 00:00:00
FILE "13 - Emeli Sande - Hope.wav" WAVE
  TRACK 13 AUDIO
    TITLE "Hope"
    PERFORMER "Emeli Sande"
    ISRC GBAAA1200017
    INDEX 01 00:00:00
FILE "14 - Emeli Sande - Read All About It (Part III).wav" WAVE
  TRACK 14 AUDIO
    TITLE "Read All About It (Part III)"
    PERFORMER "Emeli Sande"
    ISRC GBAAA1200018
    INDEX 01 00:00:00

Этот торрент недоступен для скачивания без регистрации, однако доступен по публичной magnet-ссылке (источники с публичных трекеров). Перед использованием ссылки прочтите, пожалуйста Пользовательское соглашение, а также как можно дольше оставайтесь на раздаче! Для того, чтобы скачать сам торрент-файл (который видит больше источников), а также для того, чтобы поблагодарить релизера, вам необходимо зарегистрироваться. Если регистрироваться лень - вы можете также попробовать скачать релиз по нашим партнерским ссылкам ниже.

[underverse.su].t72717.torrent
Трекер: Зарегистрирован   [ 07.11.2016 17:07 ]  

Статус: проверено (by Бишеп at 07.11.2016 17:08)
Поблагодарили: пока никто не поблагодарил...
Тип торрента: публичный - доступные источники с открытых трекеров: 
Размер: 300 MB (занимает 0,07 DVDR, для записи нужно 1 болванка DVDR/RW)
 
 
Похожие темы
Форум Тема Автор Торрент Отв. Посл. сооб.
Зарубежный R'n'B (Lossless) (R'n'B, Pop, Soul) Emeli Sande (Sande) - Our Version Of Events: Live At The Royal Albert Hall (2013) [FLAC (Image+.Cue), Lossless] Бишеп
3 | 0

0 | 533

1

20.11.2016 14:17

Зарубежный R'n'B (Lossless) (R'n'B, Pop, Soul) Bruno Mars - Unorthodox Jukebox (Target Deluxe Edition) (2012) [FLAC (Tracks+.Cue), lossless] Бишеп
6 | 3

0 | 785

2

07.11.2016 16:59

Зарубежный R'n'B (Lossless) (R'n'B, Pop) Bruno Mars - Doo-Wops & Hooligans (2010) [FLAC (Tracks+.CUE), Lossless] Бишеп
3 | 0

0 | 2139

5

04.11.2013 10:53

Зарубежный R'n'B (Lossless) (R'n'B, Pop, Hip Hop) Nelly Furtado - The Best Of (Deluxe Edition 2CD) (2010) [FLAC (Image+.CUE), Lossless] Бишеп
9 | 2

0 | 1972

5

08.01.2014 14:03

Зарубежный R'n'B (Lossless) (R'n'B, Pop, Soul) Sam Smith - In The Lonely Hour (Target Deluxe Edition) (2014) [FLAC (Tracks+.CUE), Lossless] Бишеп
7 | 6

0 | 1601

4

27.10.2014 20:17

Зарубежный R'n'B (Lossless) (R'n'B, Pop) Naughty Boy feat. Sam Smith - La La La (Promo CD) (2013) [FLAC (Image+.CUE), Lossless] Бишеп
2 | 0

0 | 802

2

07.02.2015 07:09

Зарубежный R'n'B (Lossless) (R'n'B, Pop) Fifth Harmony - 7/27 (Deluxe Edition) (2016) [FLAC (Tracks), Lossless] Web Бишеп
1 | 5

0 | 710

1

03.11.2016 05:56

Зарубежный R'n'B (Lossless) (R'n'B, Pop) Fifth Harmony - Reflection (Deluxe Edition) (2015) [FLAC (Tracks+.Cue), Lossless] Бишеп
7 | 3

0 | 648

2

03.11.2016 05:48

Зарубежный R'n'B (Lossless) (R'n'B, Pop, Soul) Emeli Sande - Long Live The Angels (2016) [FLAC (Image+.Cue), Lossless] Бишеп
1 | 0

0 | 750

1

17.11.2016 04:42

* Архив (R'n'B, Pop) Ради Славы - Будем счастливыми (2008) [MP3, CBR 320 kbps] EugeneShad

2 | 1336

30.08.2010 01:31


Яндекс.Метрика powered by Sphinx


В Н И М А Н И Е
Сайт не распространяет и не хранит электронные версии произведений, а лишь бесплатно и без коммерческой выгоды (не требуя взамен платы,
SMS и т.д.) предоставляет доступ к создаваемому пользователями каталогу ссылок на торрент-файлы, которые содержат только списки хеш-сумм.
Убедительная просьба с жалобами обращаться напрямую к пользователю, разместившему торрент файл.

Вверх