Loading...
Error

(R'n'B) Toni Braxton - Pulse (2010) [FLAC (Tracks+.Cue), Lossless]

Статистика раздачи
Размер:  303 MB   |    Зарегистрирован:  1 год   |    Скачан:  1 раз

Полного источника не было: 11 месяцев

Сидов:  0  |  0 KB/s  ]   Личеров:  0  |  0 KB/s  ]

* - сиды/пиры с внешних источников

   
 
Автор Сообщение

Бишеп Пол:Муж

07-Ноя-2016 16:53

Toni Braxton - Pulse

Жанр: R'n'B
Год выпуска: 2010
Источник: CD
Производитель диска: Atlantic
Аудиокодек: FLAC
Тип рипа: Tracks+.CUE
Битрейт аудио: lossless
Продолжительность: 00:42:20


Треклист:
01. Yesterday
02. Make My Heart
03. Hands Tied
04. Woman
05. If I Have To Wait
06. Lookin' At Me
07. Wardrobe
08. Hero
09. No Way
10. Pulse
11. Why Won't You Love Me

Код:

Exact Audio Copy V0.99 prebeta 5 from 4. May 2009

EAC extraction logfile from 28. July 2010, 1:07

Toni Braxton / Pulse

Used drive  : TSSTcorpCDRW/DVD TSL462C   Adapter: 1  ID: 0

Read mode               : Secure
Utilize accurate stream : Yes
Defeat audio cache      : Yes
Make use of C2 pointers : No

Read offset correction                      : 6
Overread into Lead-In and Lead-Out          : No
Fill up missing offset samples with silence : Yes
Delete leading and trailing silent blocks   : No
Null samples used in CRC calculations       : Yes
Used interface                              : Native Win32 interface for Win NT & 2000
Gap handling                                : Appended to previous track

Used output format              : User Defined Encoder
Selected bitrate                : 1024 kBit/s
Quality                         : High
Add ID3 tag                     : No
Command line compressor         : C:\Program Files\Exact Audio Copy\Flac\flac.exe
Additional command line options : -V -8 -T "artist=%a" -T "title=%t" -T "album=%g" -T "date=%y" -T "tracknumber=%n" -T "genre=%m" %s

TOC of the extracted CD

     Track |   Start  |  Length  | Start sector | End sector
    ---------------------------------------------------------
        1  |  0:00.00 |  3:48.10 |         0    |    17109   
        2  |  3:48.10 |  3:27.25 |     17110    |    32659   
        3  |  7:15.35 |  3:53.60 |     32660    |    50194   
        4  | 11:09.20 |  3:51.31 |     50195    |    67550   
        5  | 15:00.51 |  3:56.38 |     67551    |    85288   
        6  | 18:57.14 |  3:20.29 |     85289    |   100317   
        7  | 22:17.43 |  3:31.07 |    100318    |   116149   
        8  | 25:48.50 |  4:32.55 |    116150    |   136604   
        9  | 30:21.30 |  3:31.14 |    136605    |   152443   
       10  | 33:52.44 |  3:47.08 |    152444    |   169476   
       11  | 37:39.52 |  4:41.00 |    169477    |   190551   
       12  | 44:52.52 |  4:58.74 |    201952    |   224375   

Track  1

     Filename C:\EAC Rips\01 - Yesterday.wav

     Pre-gap length  0:00:02.00

     Peak level 98.8 %
     Track quality 99.9 %
     Test CRC 14C7DFD5
     Copy CRC 14C7DFD5
     Accurately ripped (confidence 7)  [81978081]
     Copy OK

Track  2

     Filename C:\EAC Rips\02 - Make My Heart.wav

     Peak level 92.2 %
     Track quality 100.0 %
     Test CRC 7B7C3B8C
     Copy CRC 7B7C3B8C
     Accurately ripped (confidence 7)  [DB06E162]
     Copy OK

Track  3

     Filename C:\EAC Rips\03 - Hands Tied.wav

     Peak level 96.9 %
     Track quality 100.0 %
     Test CRC 387F70A0
     Copy CRC 387F70A0
     Accurately ripped (confidence 7)  [C3B3ECE3]
     Copy OK

Track  4

     Filename C:\EAC Rips\04 - Woman.wav

     Peak level 98.8 %
     Track quality 99.9 %
     Test CRC E20312FE
     Copy CRC E20312FE
     Accurately ripped (confidence 7)  [2C1EBADF]
     Copy OK

Track  5

     Filename C:\EAC Rips\05 - If I Have to Wait.wav

     Pre-gap length  0:00:01.15

     Peak level 96.8 %
     Track quality 100.0 %
     Test CRC DB99D326
     Copy CRC DB99D326
     Accurately ripped (confidence 7)  [B95EB05D]
     Copy OK

Track  6

     Filename C:\EAC Rips\06 - Lookin' at Me.wav

     Peak level 98.8 %
     Track quality 100.0 %
     Test CRC 79C97DBF
     Copy CRC 79C97DBF
     Accurately ripped (confidence 7)  [C3118119]
     Copy OK

Track  7

     Filename C:\EAC Rips\07 - Wardwrobe.wav

     Peak level 96.5 %
     Track quality 100.0 %
     Test CRC FD79137F
     Copy CRC FD79137F
     Accurately ripped (confidence 7)  [56AEE339]
     Copy OK

Track  8

     Filename C:\EAC Rips\08 - Hero.wav

     Peak level 98.8 %
     Track quality 100.0 %
     Test CRC 4D998396
     Copy CRC 4D998396
     Accurately ripped (confidence 7)  [BA7B4BD4]
     Copy OK

Track  9

     Filename C:\EAC Rips\09 - No Way.wav

     Peak level 98.8 %
     Track quality 99.9 %
     Test CRC 232BB6B4
     Copy CRC 232BB6B4
     Accurately ripped (confidence 7)  [8D84B31D]
     Copy OK

Track 10

     Filename C:\EAC Rips\10 - Pulse.wav

     Peak level 100.0 %
     Track quality 99.9 %
     Test CRC F93A36FB
     Copy CRC F93A36FB
     Accurately ripped (confidence 7)  [8F5C883B]
     Copy OK

Track 11

     Filename C:\EAC Rips\11 - Why Won't You Love Me.wav

     Peak level 98.8 %
     Track quality 100.0 %
     Test CRC 1FEE1764
     Copy CRC 1FEE1764
     Accurately ripped (confidence 7)  [A49D125B]
     Copy OK

All tracks accurately ripped

No errors occurred

End of status report

Код:

REM DATE 2010
REM DISCID 8E0BAF0C
REM COMMENT "ExactAudioCopy v0.99pb5"
PERFORMER "Toni Braxton"
TITLE "Pulse"
FILE "01 - Yesterday.wav" WAVE
  TRACK 01 AUDIO
    TITLE "Yesterday"
    PERFORMER "Toni Braxton"
    FLAGS DCP
    INDEX 01 00:00:00
FILE "02 - Make My Heart.wav" WAVE
  TRACK 02 AUDIO
    TITLE "Make My Heart"
    PERFORMER "Toni Braxton"
    FLAGS DCP
    INDEX 01 00:00:00
FILE "03 - Hands Tied.wav" WAVE
  TRACK 03 AUDIO
    TITLE "Hands Tied"
    PERFORMER "Toni Braxton"
    FLAGS DCP
    INDEX 01 00:00:00
FILE "04 - Woman.wav" WAVE
  TRACK 04 AUDIO
    TITLE "Woman"
    PERFORMER "Toni Braxton"
    FLAGS DCP
    INDEX 01 00:00:00
  TRACK 05 AUDIO
    TITLE "If I Have to Wait"
    PERFORMER "Toni Braxton"
    FLAGS DCP
    INDEX 00 03:50:16
FILE "05 - If I Have to Wait.wav" WAVE
    INDEX 01 00:00:00
FILE "06 - Lookin' at Me.wav" WAVE
  TRACK 06 AUDIO
    TITLE "Lookin' at Me"
    PERFORMER "Toni Braxton"
    FLAGS DCP
    INDEX 01 00:00:00
FILE "07 - Wardrobe.wav" WAVE
  TRACK 07 AUDIO
    TITLE "Wardrobe"
    PERFORMER "Toni Braxton"
    FLAGS DCP
    INDEX 01 00:00:00
FILE "08 - Hero.wav" WAVE
  TRACK 08 AUDIO
    TITLE "Hero"
    PERFORMER "Toni Braxton"
    FLAGS DCP
    INDEX 01 00:00:00
FILE "09 - No Way.wav" WAVE
  TRACK 09 AUDIO
    TITLE "No Way"
    PERFORMER "Toni Braxton"
    FLAGS DCP
    INDEX 01 00:00:00
FILE "10 - Pulse.wav" WAVE
  TRACK 10 AUDIO
    TITLE "Pulse"
    PERFORMER "Toni Braxton"
    FLAGS DCP
    INDEX 01 00:00:00
FILE "11 - Why Won't You Love Me.wav" WAVE
  TRACK 11 AUDIO
    TITLE "Why Won't You Love Me"
    PERFORMER "Toni Braxton"
    FLAGS DCP
    INDEX 01 00:00:00

Этот торрент недоступен для скачивания без регистрации, однако доступен по публичной magnet-ссылке (источники с публичных трекеров). Перед использованием ссылки прочтите, пожалуйста Пользовательское соглашение, а также как можно дольше оставайтесь на раздаче! Для того, чтобы скачать сам торрент-файл (который видит больше источников), а также для того, чтобы поблагодарить релизера, вам необходимо зарегистрироваться. Если регистрироваться лень - вы можете также попробовать скачать релиз по нашим партнерским ссылкам ниже.

[underverse.su].t72714.torrent
Трекер: Зарегистрирован   [ 07.11.2016 16:53 ]  

Статус: проверено (by Бишеп at 07.11.2016 16:53)
Поблагодарили: пока никто не поблагодарил...
Тип торрента: публичный - доступные источники с открытых трекеров: 
Размер: 303 MB (занимает 0,07 DVDR, для записи нужно 1 болванка DVDR/RW)
 
 

Яндекс.Метрика powered by Sphinx


В Н И М А Н И Е
Сайт не распространяет и не хранит электронные версии произведений, а лишь бесплатно и без коммерческой выгоды (не требуя взамен платы,
SMS и т.д.) предоставляет доступ к создаваемому пользователями каталогу ссылок на торрент-файлы, которые содержат только списки хеш-сумм.
Убедительная просьба с жалобами обращаться напрямую к пользователю, разместившему торрент файл.

Вверх