Loading...
Error

(R'n'B, Swing, Soul) Lauryn Hill - The Miseducation Of Lauryn Hill (Japanese Edition) (1998) [FLAC (Tracks+.Cue), Lossless]

Статистика раздачи
Размер:  455 MB   |    Зарегистрирован:  1 год   |    Скачан:  2 раза

Полного источника не было: 1 час 48 минут

Сидов:  0  |  0 KB/s  ]   Личеров:  0  |  0 KB/s  ]

* - сиды/пиры с внешних источников

   
 
Автор Сообщение

Бишеп Пол:Муж

07-Ноя-2016 16:39

Lauryn Hill‎ - The Miseducation Of Lauryn Hill (Japanese Edition)

Жанр: R'n'B, Swing, Soul
Год выпуска: 1998
Источник: CD
Производитель диска: Ruffhouse Records/Sony Records
Аудиокодек: FLAC
Тип рипа: Tracks+.CUE
Битрейт аудио: lossless
Продолжительность: 01:17:51


Треклист:
01. Intro
02. Lost Ones
03. Love- Int.
04. Ex-Factor
05. To Zion
06. How Many Of You Have Ever - Int.
07. Doo Wop (That Thing)
08. Intelligent Women Skit
09. Superstar
10. Final Hour
11. When It Hurts So Bad
12. Love Is Confusion Skit
13. I Used To Love Him
14. Forgive Them Father
15. What Do You Think - Int.
16. Every Ghetto, Every City
17. What Do You Think - Int.
18. Nothing Even Matters
19. Everything Is Everything
20. The Miseducation Of Lauryn Hill
21. Can't Take My Eyes Off You
22. Tell Him (Live)

Код:

Exact Audio Copy V1.0 beta 3 from 29. August 2011

EAC extraction logfile from 7. February 2014, 19:25

Lauryn Hill / The Miseducation of Lauryn Hill

Used drive  : TSSTcorpDVD+-RW TS-H553A   Adapter: 0  ID: 1

Read mode               : Secure
Utilize accurate stream : Yes
Defeat audio cache      : Yes
Make use of C2 pointers : No

Read offset correction                      : 6
Overread into Lead-In and Lead-Out          : No
Fill up missing offset samples with silence : Yes
Delete leading and trailing silent blocks   : No
Null samples used in CRC calculations       : Yes
Used interface                              : Native Win32 interface for Win NT & 2000
Gap handling                                : Appended to previous track

Used output format              : User Defined Encoder
Selected bitrate                : 768 kBit/s
Quality                         : High
Add ID3 tag                     : No
Command line compressor         : C:\Program Files (x86)\Exact Audio Copy\FLAC\FLAC.EXE
Additional command line options :  -8 -V -T "ARTIST=%artist%" -T "TITLE=%title%" -T "ALBUM=%albumtitle%" -T "DATE=%year%" -T "TRACKNUMBER=%tracknr%" -T "GENRE=%genre%" -T "PERFORMER=%albuminterpret%" -T "COMPOSER=%composer%" %haslyrics%--tag-from-file=LYRICS="%lyricsfile%"%haslyrics% -T "ALBUMARTIST=%albumartist%" -T "DISCNUMBER=%cdnumber%" -T "TOTALDISCS=%totalcds%" -T "TOTALTRACKS=%numtracks%" -T "COMMENT=%comment%" %source% -o %dest%

TOC of the extracted CD

     Track |   Start  |  Length  | Start sector | End sector
    ---------------------------------------------------------
        1  |  0:00.00 |  0:47.22 |         0    |     3546   
        2  |  0:47.22 |  4:24.13 |      3547    |    23359   
        3  |  5:11.35 |  1:09.65 |     23360    |    28599   
        4  |  6:21.25 |  5:26.37 |     28600    |    53086   
        5  | 11:47.62 |  4:33.13 |     53087    |    73574   
        6  | 16:21.00 |  1:36.02 |     73575    |    80776   
        7  | 17:57.02 |  3:58.68 |     80777    |    98694   
        8  | 21:55.70 |  1:21.30 |     98695    |   104799   
        9  | 23:17.25 |  4:57.07 |    104800    |   127081   
       10  | 28:14.32 |  4:16.03 |    127082    |   146284   
       11  | 32:30.35 |  4:52.74 |    146285    |   168258   
       12  | 37:23.34 |  0:49.13 |    168259    |   171946   
       13  | 38:12.47 |  5:39.65 |    171947    |   197436   
       14  | 43:52.37 |  4:26.63 |    197437    |   217449   
       15  | 48:19.25 |  0:48.37 |    217450    |   221086   
       16  | 49:07.62 |  4:35.35 |    221087    |   241746   
       17  | 53:43.22 |  0:39.20 |    241747    |   244691   
       18  | 54:22.42 |  5:50.35 |    244692    |   270976   
       19  | 60:13.02 |  4:57.63 |    270977    |   293314   
       20  | 65:10.65 |  4:17.22 |    293315    |   312611   
       21  | 69:28.12 |  3:41.38 |    312612    |   329224   
       22  | 73:09.50 |  4:40.72 |    329225    |   350296   

Track  1

     Filename C:\Music\Lauryn Hill - The Miseducation of Lauryn Hill (Japanese Edition) [FLAC]\01 Intro.wav

     Pre-gap length  0:00:02.00

     Peak level 64.6 %
     Extraction speed 2.9 X
     Track quality 100.0 %
     Test CRC A5B99CC1
     Copy CRC A5B99CC1
     Accurately ripped (confidence 9)  [67BBF2C1]  (AR v2)
     Copy OK

Track  2

     Filename C:\Music\Lauryn Hill - The Miseducation of Lauryn Hill (Japanese Edition) [FLAC]\02 Lost Ones.wav

     Peak level 98.3 %
     Extraction speed 5.0 X
     Track quality 100.0 %
     Test CRC C0EA83D3
     Copy CRC C0EA83D3
     Accurately ripped (confidence 9)  [53D63D4D]  (AR v2)
     Copy OK

Track  3

     Filename C:\Music\Lauryn Hill - The Miseducation of Lauryn Hill (Japanese Edition) [FLAC]\03 Love (Interlude).wav

     Peak level 57.0 %
     Extraction speed 3.9 X
     Track quality 100.0 %
     Test CRC E05AEF93
     Copy CRC E05AEF93
     Accurately ripped (confidence 9)  [C6A9191E]  (AR v2)
     Copy OK

Track  4

     Filename C:\Music\Lauryn Hill - The Miseducation of Lauryn Hill (Japanese Edition) [FLAC]\04 Ex-Factor.wav

     Peak level 100.0 %
     Extraction speed 5.9 X
     Track quality 100.0 %
     Test CRC 7C87B484
     Copy CRC 7C87B484
     Accurately ripped (confidence 9)  [3B5DFFCE]  (AR v2)
     Copy OK

Track  5

     Filename C:\Music\Lauryn Hill - The Miseducation of Lauryn Hill (Japanese Edition) [FLAC]\05 To Zion feat. Carlos Santana.wav

     Peak level 97.7 %
     Extraction speed 6.2 X
     Track quality 100.0 %
     Test CRC 91F81935
     Copy CRC 91F81935
     Accurately ripped (confidence 9)  [D8E55A7A]  (AR v2)
     Copy OK

Track  6

     Filename C:\Music\Lauryn Hill - The Miseducation of Lauryn Hill (Japanese Edition) [FLAC]\06 How Many Of You Have Ever (Interlude).wav

     Peak level 59.8 %
     Extraction speed 5.3 X
     Track quality 100.0 %
     Test CRC DB07896F
     Copy CRC DB07896F
     Accurately ripped (confidence 9)  [AAB64A98]  (AR v2)
     Copy OK

Track  7

     Filename C:\Music\Lauryn Hill - The Miseducation of Lauryn Hill (Japanese Edition) [FLAC]\07 Doo Wop (That Thing).wav

     Peak level 97.7 %
     Extraction speed 6.7 X
     Track quality 100.0 %
     Test CRC 6A01387A
     Copy CRC 6A01387A
     Accurately ripped (confidence 9)  [2E08961E]  (AR v2)
     Copy OK

Track  8

     Filename C:\Music\Lauryn Hill - The Miseducation of Lauryn Hill (Japanese Edition) [FLAC]\08 Intelligent Women Skit.wav

     Peak level 53.0 %
     Extraction speed 5.2 X
     Track quality 100.0 %
     Test CRC 4DEF4BE6
     Copy CRC 4DEF4BE6
     Accurately ripped (confidence 9)  [1537D529]  (AR v2)
     Copy OK

Track  9

     Filename C:\Music\Lauryn Hill - The Miseducation of Lauryn Hill (Japanese Edition) [FLAC]\09 Superstar.wav

     Peak level 100.0 %
     Extraction speed 7.3 X
     Track quality 100.0 %
     Test CRC 98C507B6
     Copy CRC 98C507B6
     Accurately ripped (confidence 9)  [DCEBCCED]  (AR v2)
     Copy OK

Track 10

     Filename C:\Music\Lauryn Hill - The Miseducation of Lauryn Hill (Japanese Edition) [FLAC]\10 Final Hour.wav

     Peak level 100.0 %
     Extraction speed 7.6 X
     Track quality 100.0 %
     Test CRC 4FBA19A6
     Copy CRC 4FBA19A6
     Accurately ripped (confidence 9)  [9A8BB544]  (AR v2)
     Copy OK

Track 11

     Filename C:\Music\Lauryn Hill - The Miseducation of Lauryn Hill (Japanese Edition) [FLAC]\11 When It Hurts So Bad.wav

     Peak level 97.7 %
     Extraction speed 7.9 X
     Track quality 100.0 %
     Test CRC 156D7EDE
     Copy CRC 156D7EDE
     Accurately ripped (confidence 9)  [9BEA85A5]  (AR v2)
     Copy OK

Track 12

     Filename C:\Music\Lauryn Hill - The Miseducation of Lauryn Hill (Japanese Edition) [FLAC]\12 Love Is Confusion Skit.wav

     Peak level 70.7 %
     Extraction speed 5.1 X
     Track quality 100.0 %
     Test CRC 7577C02B
     Copy CRC 7577C02B
     Accurately ripped (confidence 9)  [6C84D480]  (AR v2)
     Copy OK

Track 13

     Filename C:\Music\Lauryn Hill - The Miseducation of Lauryn Hill (Japanese Edition) [FLAC]\13 I Used To Love Him feat. Mary J. Blige.wav

     Peak level 97.7 %
     Extraction speed 8.5 X
     Track quality 100.0 %
     Test CRC FD297534
     Copy CRC FD297534
     Accurately ripped (confidence 9)  [D6375CB2]  (AR v2)
     Copy OK

Track 14

     Filename C:\Music\Lauryn Hill - The Miseducation of Lauryn Hill (Japanese Edition) [FLAC]\14 Forgive Them Father.wav

     Peak level 97.7 %
     Extraction speed 8.6 X
     Track quality 100.0 %
     Test CRC 730C1EE8
     Copy CRC 730C1EE8
     Accurately ripped (confidence 9)  [FE439066]  (AR v2)
     Copy OK

Track 15

     Filename C:\Music\Lauryn Hill - The Miseducation of Lauryn Hill (Japanese Edition) [FLAC]\15 What Do You Think (Interlude).wav

     Peak level 70.7 %
     Extraction speed 5.4 X
     Track quality 100.0 %
     Test CRC 05F3C45B
     Copy CRC 05F3C45B
     Accurately ripped (confidence 9)  [E6DD82A9]  (AR v2)
     Copy OK

Track 16

     Filename C:\Music\Lauryn Hill - The Miseducation of Lauryn Hill (Japanese Edition) [FLAC]\16 Every Ghetto, Every City.wav

     Peak level 100.0 %
     Extraction speed 9.0 X
     Track quality 100.0 %
     Test CRC 39EF9684
     Copy CRC 39EF9684
     Accurately ripped (confidence 9)  [F807DA41]  (AR v2)
     Copy OK

Track 17

     Filename C:\Music\Lauryn Hill - The Miseducation of Lauryn Hill (Japanese Edition) [FLAC]\17 What Do You Think (Interlude).wav

     Peak level 80.1 %
     Extraction speed 5.2 X
     Track quality 100.0 %
     Test CRC 2B14215E
     Copy CRC 2B14215E
     Accurately ripped (confidence 9)  [4277953B]  (AR v2)
     Copy OK

Track 18

     Filename C:\Music\Lauryn Hill - The Miseducation of Lauryn Hill (Japanese Edition) [FLAC]\18 Nothing Even Matters feat. D'Angelo.wav

     Peak level 100.0 %
     Extraction speed 9.6 X
     Track quality 100.0 %
     Test CRC 32C76F92
     Copy CRC 32C76F92
     Accurately ripped (confidence 9)  [8CCF1EE5]  (AR v2)
     Copy OK

Track 19

     Filename C:\Music\Lauryn Hill - The Miseducation of Lauryn Hill (Japanese Edition) [FLAC]\19 Everything Is Everything.wav

     Peak level 100.0 %
     Extraction speed 9.7 X
     Track quality 100.0 %
     Test CRC 509603C8
     Copy CRC 509603C8
     Accurately ripped (confidence 9)  [9C85BAAA]  (AR v2)
     Copy OK

Track 20

     Filename C:\Music\Lauryn Hill - The Miseducation of Lauryn Hill (Japanese Edition) [FLAC]\20 The Miseducation Of Lauryn Hill.wav

     Peak level 99.9 %
     Extraction speed 8.6 X
     Track quality 99.9 %
     Test CRC 1FB8EFFF
     Copy CRC 1FB8EFFF
     Accurately ripped (confidence 9)  [D99396C1]  (AR v2)
     Copy OK

Track 21

     Filename C:\Music\Lauryn Hill - The Miseducation of Lauryn Hill (Japanese Edition) [FLAC]\21 Can't Take My Eyes Off Of You.wav

     Pre-gap length  0:00:20.67

     Peak level 100.0 %
     Extraction speed 9.4 X
     Track quality 100.0 %
     Test CRC 23526CA8
     Copy CRC 23526CA8
     Accurately ripped (confidence 9)  [E7999F65]  (AR v2)
     Copy OK

Track 22

     Filename C:\Music\Lauryn Hill - The Miseducation of Lauryn Hill (Japanese Edition) [FLAC]\22 Tell Him (Live).wav

     Peak level 100.0 %
     Extraction speed 10.2 X
     Track quality 100.0 %
     Test CRC 0EEAD4F2
     Copy CRC 0EEAD4F2
     Accurately ripped (confidence 9)  [3767793A]  (AR v2)
     Copy OK

All tracks accurately ripped

No errors occurred

End of status report

---- CUETools DB Plugin V2.1.3

[CTDB TOCID: rsyrnVdnkhXUxtE7u13xUz4v1FE-] found, Submit result: already submitted
[9e8cdc4c] (11/11) Accurately ripped

==== Log checksum 0806B1FC7BF9BE47CC0D00225EDDF12447FAA7812952F88B48E93826D622FCAD ====

Код:

REM GENRE R&B
REM DATE 1998
REM DISCID 4A123E16
REM COMMENT "ExactAudioCopy v1.0b3"
PERFORMER "Lauryn Hill"
TITLE "The Miseducation of Lauryn Hill"
FILE "01 Intro.wav" WAVE
  TRACK 01 AUDIO
    TITLE "Intro"
    PERFORMER "Lauryn Hill"
    INDEX 01 00:00:00
FILE "02 Lost Ones.wav" WAVE
  TRACK 02 AUDIO
    TITLE "Lost Ones"
    PERFORMER "Lauryn Hill"
    INDEX 01 00:00:00
FILE "03 Love (Interlude).wav" WAVE
  TRACK 03 AUDIO
    TITLE "Love (Interlude)"
    PERFORMER "Lauryn Hill"
    INDEX 01 00:00:00
FILE "04 Ex-Factor.wav" WAVE
  TRACK 04 AUDIO
    TITLE "Ex-Factor"
    PERFORMER "Lauryn Hill"
    INDEX 01 00:00:00
FILE "05 To Zion feat. Carlos Santana.wav" WAVE
  TRACK 05 AUDIO
    TITLE "To Zion feat. Carlos Santana"
    PERFORMER "Lauryn Hill"
    INDEX 01 00:00:00
FILE "06 How Many Of You Have Ever (Interlude).wav" WAVE
  TRACK 06 AUDIO
    TITLE "How Many Of You Have Ever (Interlude)"
    PERFORMER "Lauryn Hill"
    INDEX 01 00:00:00
FILE "07 Doo Wop (That Thing).wav" WAVE
  TRACK 07 AUDIO
    TITLE "Doo Wop (That Thing)"
    PERFORMER "Lauryn Hill"
    INDEX 01 00:00:00
FILE "08 Intelligent Women Skit.wav" WAVE
  TRACK 08 AUDIO
    TITLE "Intelligent Women Skit"
    PERFORMER "Lauryn Hill"
    INDEX 01 00:00:00
FILE "09 Superstar.wav" WAVE
  TRACK 09 AUDIO
    TITLE "Superstar"
    PERFORMER "Lauryn Hill"
    INDEX 01 00:00:00
FILE "10 Final Hour.wav" WAVE
  TRACK 10 AUDIO
    TITLE "Final Hour"
    PERFORMER "Lauryn Hill"
    INDEX 01 00:00:00
FILE "11 When It Hurts So Bad.wav" WAVE
  TRACK 11 AUDIO
    TITLE "When It Hurts So Bad"
    PERFORMER "Lauryn Hill"
    INDEX 01 00:00:00
FILE "12 Love Is Confusion Skit.wav" WAVE
  TRACK 12 AUDIO
    TITLE "Love Is Confusion Skit"
    PERFORMER "Lauryn Hill"
    INDEX 01 00:00:00
FILE "13 I Used To Love Him feat. Mary J. Blige.wav" WAVE
  TRACK 13 AUDIO
    TITLE "I Used To Love Him feat. Mary J. Blige"
    PERFORMER "Lauryn Hill"
    INDEX 01 00:00:00
FILE "14 Forgive Them Father.wav" WAVE
  TRACK 14 AUDIO
    TITLE "Forgive Them Father"
    PERFORMER "Lauryn Hill"
    INDEX 01 00:00:00
FILE "15 What Do You Think (Interlude).wav" WAVE
  TRACK 15 AUDIO
    TITLE "What Do You Think (Interlude)"
    PERFORMER "Lauryn Hill"
    INDEX 01 00:00:00
FILE "16 Every Ghetto, Every City.wav" WAVE
  TRACK 16 AUDIO
    TITLE "Every Ghetto, Every City"
    PERFORMER "Lauryn Hill"
    INDEX 01 00:00:00
FILE "17 What Do You Think (Interlude).wav" WAVE
  TRACK 17 AUDIO
    TITLE "What Do You Think (Interlude)"
    PERFORMER "Lauryn Hill"
    INDEX 01 00:00:00
FILE "18 Nothing Even Matters feat. D'Angelo.wav" WAVE
  TRACK 18 AUDIO
    TITLE "Nothing Even Matters feat. D'Angelo"
    PERFORMER "Lauryn Hill"
    INDEX 01 00:00:00
FILE "19 Everything Is Everything.wav" WAVE
  TRACK 19 AUDIO
    TITLE "Everything Is Everything"
    PERFORMER "Lauryn Hill"
    INDEX 01 00:00:00
FILE "20 The Miseducation Of Lauryn Hill.wav" WAVE
  TRACK 20 AUDIO
    TITLE "The Miseducation Of Lauryn Hill"
    PERFORMER "Lauryn Hill"
    INDEX 01 00:00:00
  TRACK 21 AUDIO
    TITLE "Can't Take My Eyes Off Of You"
    PERFORMER "Lauryn Hill"
    INDEX 00 03:56:30
FILE "21 Can't Take My Eyes Off Of You.wav" WAVE
    INDEX 01 00:00:00
FILE "22 Tell Him (Live).wav" WAVE
  TRACK 22 AUDIO
    TITLE "Tell Him (Live)"
    PERFORMER "Lauryn Hill"
    INDEX 01 00:00:00

Этот торрент недоступен для скачивания без регистрации, однако доступен по публичной magnet-ссылке (источники с публичных трекеров). Перед использованием ссылки прочтите, пожалуйста Пользовательское соглашение, а также как можно дольше оставайтесь на раздаче! Для того, чтобы скачать сам торрент-файл (который видит больше источников), а также для того, чтобы поблагодарить релизера, вам необходимо зарегистрироваться. Если регистрироваться лень - вы можете также попробовать скачать релиз по нашим партнерским ссылкам ниже.

[underverse.su].t72712.torrent
Трекер: Зарегистрирован   [ 07.11.2016 16:39 ]  

Статус: проверено (by Бишеп at 07.11.2016 16:39)
Поблагодарили: пока никто не поблагодарил...
Тип торрента: публичный - доступные источники с открытых трекеров: 
Размер: 455 MB (занимает 0,1 DVDR, для записи нужно 1 болванка DVDR/RW)
 
 
Похожие темы
Форум Тема Автор Торрент Отв. Посл. сооб.
Зарубежный R'n'B (Lossless) (R'n'B, Swing) Rita Ora - Ora (2012) [FLAC (Tracks+.CUE), Lossless] Бишеп
2 | 0

0 | 730

3

02.02.2015 08:47


Яндекс.Метрика powered by Sphinx


В Н И М А Н И Е
Сайт не распространяет и не хранит электронные версии произведений, а лишь бесплатно и без коммерческой выгоды (не требуя взамен платы,
SMS и т.д.) предоставляет доступ к создаваемому пользователями каталогу ссылок на торрент-файлы, которые содержат только списки хеш-сумм.
Убедительная просьба с жалобами обращаться напрямую к пользователю, разместившему торрент файл.

Вверх