Loading...
Error

(R'n'B, Soul, Pop) Jason Derulo - Everything is 4 (2015) [FLAC (Image+.Cue), Lossless]

Статистика раздачи
Размер:  282 MB   |    Зарегистрирован:  1 год   |    Скачан:  1 раз
Сидов:  1  |  0 KB/s  ]   Личеров:  0  |  0 KB/s  ]

* - сиды/пиры с внешних источников

   
 
Автор Сообщение

Бишеп Пол:Муж

06-Ноя-2016 16:11

Jason Derulo - Everything is 4

Жанр: R'n'B, Soul, Pop
Год выпуска: 2015
Источник: CD
Производитель диска: Warner Bros. Records
Аудиокодек: FLAC
Тип рипа: Image+.CUE
Битрейт аудио: lossless
Продолжительность:


Треклист:
01. Want To Want Me
02. Cheyenne
03. Get Ugly
04. Pull-Up
05. Love Like That (feat. K. Michelle)
06. Painkiller (Feat. Meghan Trainor)
07. Broke (feat. Stevie Wonder & Keith Urban)
08. Try Me (feat. Jennifer Lopez & Matoma)
09. Love Me Down
10. Trade Hearts (feat. Julia Michaels)
11. X2CU

Код:

Exact Audio Copy V1.0 beta 6 from 9. April 2015

EAC extraction logfile from 31. May 2015, 13:40

Jason Derulo / Everything is 4

Used drive  : hp      CDDVDW SH-216DB   Adapter: 1  ID: 0

Read mode               : Secure
Utilize accurate stream : Yes
Defeat audio cache      : Yes
Make use of C2 pointers : No

Read offset correction                      : 6
Overread into Lead-In and Lead-Out          : No
Fill up missing offset samples with silence : Yes
Delete leading and trailing silent blocks   : No
Null samples used in CRC calculations       : Yes
Used interface                              : Native Win32 interface for Win NT & 2000

Used output format : Internal WAV Routines
Sample format      : 44.100 Hz; 16 Bit; Stereo

TOC of the extracted CD

     Track |   Start  |  Length  | Start sector | End sector
    ---------------------------------------------------------
        1  |  0:00.00 |  3:27.51 |         0    |    15575   
        2  |  3:27.51 |  3:35.26 |     15576    |    31726   
        3  |  7:03.02 |  3:20.35 |     31727    |    46761   
        4  | 10:23.37 |  3:06.73 |     46762    |    60784   
        5  | 13:30.35 |  3:59.57 |     60785    |    78766   
        6  | 17:30.17 |  3:23.45 |     78767    |    94036   
        7  | 20:53.62 |  3:06.07 |     94037    |   107993   
        8  | 23:59.69 |  3:20.18 |    107994    |   123011   
        9  | 27:20.12 |  2:45.70 |    123012    |   135456   
       10  | 30:06.07 |  3:30.52 |    135457    |   151258   
       11  | 33:36.59 |  5:14.01 |    151259    |   174809   

Range status and errors

Selected range

     Filename E:\POST\Jason Derulo - Everything is 4 (EAC)\Jason Derulo - Everything is 4.wav

     Peak level 99.9 %
     Extraction speed 6.1 X
     Range quality 100.0 %
     Test CRC 6A09F9F7
     Copy CRC 6A09F9F7
     Copy OK

No errors occurred

 
AccurateRip summary
 
Track  1  not present in database
Track  2  not present in database
Track  3  not present in database
Track  4  not present in database
Track  5  not present in database
Track  6  not present in database
Track  7  not present in database
Track  8  not present in database
Track  9  not present in database
Track 10  not present in database
Track 11  not present in database
 
None of the tracks are present in the AccurateRip database

End of status report

Код:

REM GENRE R&B
REM DATE 2015
REM DISCID 78091A0B
REM COMMENT "ExactAudioCopy v1.0b6"
PERFORMER "Jason Derulo"
TITLE "Everything is 4"
FILE "Jason Derulo - Everything is 4.flac" WAVE
  TRACK 01 AUDIO
    TITLE "Want To Want Me"
    PERFORMER "Jason Derulo"
    INDEX 01 00:00:00
  TRACK 02 AUDIO
    TITLE "Cheyenne"
    PERFORMER "Jason Derulo"
    INDEX 01 03:27:51
  TRACK 03 AUDIO
    TITLE "Get Ugly"
    PERFORMER "Jason Derulo"
    INDEX 01 07:03:02
  TRACK 04 AUDIO
    TITLE "Pull-Up"
    PERFORMER "Jason Derulo"
    INDEX 01 10:23:37
  TRACK 05 AUDIO
    TITLE "Love Like That (feat. K. Michelle)"
    PERFORMER "Jason Derulo"
    INDEX 01 13:30:35
  TRACK 06 AUDIO
    TITLE "Painkiller (Feat. Meghan Trainor)"
    PERFORMER "Jason Derulo"
    INDEX 01 17:30:17
  TRACK 07 AUDIO
    TITLE "Broke (feat. Stevie Wonder & Keith Urban)"
    PERFORMER "Jason Derulo"
    INDEX 01 20:53:62
  TRACK 08 AUDIO
    TITLE "Try Me (feat. Jennifer Lopez & Matoma)"
    PERFORMER "Jason Derulo"
    INDEX 01 23:59:69
  TRACK 09 AUDIO
    TITLE "Love Me Down"
    PERFORMER "Jason Derulo"
    INDEX 01 27:20:12
  TRACK 10 AUDIO
    TITLE "Trade Hearts (feat. Julia Michaels)"
    PERFORMER "Jason Derulo"
    INDEX 01 30:06:07
  TRACK 11 AUDIO
    TITLE "X2CU"
    PERFORMER "Jason Derulo"
    INDEX 01 33:36:59

Этот торрент недоступен для скачивания без регистрации, однако доступен по публичной magnet-ссылке (источники с публичных трекеров). Перед использованием ссылки прочтите, пожалуйста Пользовательское соглашение, а также как можно дольше оставайтесь на раздаче! Для того, чтобы скачать сам торрент-файл (который видит больше источников), а также для того, чтобы поблагодарить релизера, вам необходимо зарегистрироваться. Если регистрироваться лень - вы можете также попробовать скачать релиз по нашим партнерским ссылкам ниже.

[underverse.su].t72477.torrent
Трекер: Зарегистрирован   [ 06.11.2016 16:11 ]  

Статус: проверено (by Бишеп at 06.11.2016 16:11)
Поблагодарили: пока никто не поблагодарил...
Тип торрента: публичный - доступные источники с открытых трекеров: 
Размер: 282 MB (занимает 0,06 DVDR, для записи нужно 1 болванка DVDR/RW)
 
 
Похожие темы
Форум Тема Автор Торрент Отв. Посл. сооб.
Зарубежный R'n'B (R'n'B, Soul) Zonnique - Love Jones (EP) (2017) [MP3, 320 kbps CBR] Darkferse
2 | 1

0 | 414

1

12.04.2017 20:58

Зарубежный R'n'B (R'n'B, Soul) Avery Sunshine - Twenty Sixty Four (2017) [MP3, 320 kbps CBR] Darkferse
0 | 0

0 | 635

0

26.04.2017 21:05

Зарубежный R'n'B (R'n'B, Soul, Funk) JMSN - Whatever Makes U Happy (2017) [MP3, 320 kbps CBR] Darkferse
5 | 0

0 | 422

1

12.05.2017 15:32

Зарубежный R'n'B (R'n'B, Soul) PARTYNEXTDOOR - Colours 2 [EP] (2017) [MP3, 320 kbps CBR] Darkferse
3 | 0

0 | 293

0

02.06.2017 15:09

Зарубежный R'n'B (R'n'B, Soul, Pop) Daley - The Spectrum (2017) [MP3, 320 kbps CBR] Darkferse
3 | 0

0 | 304

2

26.08.2017 20:40

Зарубежный R'n'B (R'n'B, Soul) Elijah Blake - Audiology (2017) [MP3, 320 kbps CBR] Darkferse
6 | 1

0 | 172

1

05.09.2017 09:21

Зарубежный R'n'B (Lossless) (R'n'B, Soul, Neo-Soul) Maxwell - blackSUMMERS'night (2016) [FLAC (Tracks+.Cue), Lossless] Бишеп
3 | 0

0 | 413

1

17.11.2016 11:18

Зарубежный R'n'B (Lossless) (R'n'B, Soul, Hip-Hop) Iyeoka - Say Yes (2010) [FLAC (Tracks+.Cue), Lossless] Бишеп
31 | 1

0 | 583

2

16.11.2016 19:18

Зарубежный R'n'B (Lossless) (R'n'B, Soul) Toni Braxton & Babyface - Love, Marriage & Divorce (2014) [FLAC (Image+.Cue), Lossless] Бишеп
1 | 0

0 | 450

2

16.11.2016 19:06

Зарубежный R'n'B (Lossless) (R'n'B, Soul, Blues) Joss Stone - The Soul Sessions Vol. 2 (Deluxe Edition) (2012) [FLAC (Image+.CUE), Lossless] Бишеп
11 | 2

1 | 2025

6

21.09.2013 14:06


Яндекс.Метрика powered by Sphinx


В Н И М А Н И Е
Сайт не распространяет и не хранит электронные версии произведений, а лишь бесплатно и без коммерческой выгоды (не требуя взамен платы,
SMS и т.д.) предоставляет доступ к создаваемому пользователями каталогу ссылок на торрент-файлы, которые содержат только списки хеш-сумм.
Убедительная просьба с жалобами обращаться напрямую к пользователю, разместившему торрент файл.

Вверх