Loading...
Error

(R'n'B, Pop) Fifth Harmony - Reflection (Deluxe Edition) (2015) [FLAC (Tracks+.Cue), Lossless]

Статистика раздачи
Размер:  363 MB   |    Зарегистрирован:  1 год   |    Скачан:  2 раза

Полного источника не было: 3 месяца 3 дня

Сидов:  0  |  0 KB/s  ]   Личеров:  0  |  0 KB/s  ]

* - сиды/пиры с внешних источников

   
 
Автор Сообщение

Бишеп Пол:Муж

03-Ноя-2016 05:48

Fifth Harmony - Reflection

Жанр: R'n'B, Pop
Год выпуска: 2015
Источник: CD
Производитель диска: Syco Entertainment, Epic - 88875021222
Аудиокодек: FLAC
Тип рипа: Tracks+.CUE
Битрейт аудио: lossless
Продолжительность: 00:48:40


Треклист:
01. Top Down (3:40)
02. BO$$ (2:51)
03. Sledgehammer (3:51)
04. Worth It (feat. Kid Ink) (3:45)
05. This Is How We Roll (4:32)
06. Everlasting Love (3:05)
07. Like Mariah (feat. Tyga) (3:28)
08. Them Girls Be Like (2:43)
09. Reflection (3:09)
10. Suga Mama (3:39)
11. We Know (2:57)
12. Going Nowhere (3:34)
13. Body Rock (4:04)
14. Brave Honest Beautiful (feat. Meghan Trainor) (3:28)

Код:

Exact Audio Copy V1.0 beta 3 from 29. August 2011

EAC extraction logfile from 20. April 2015, 20:54

Fifth Harmony / Reflection

Used drive  : hp      DVD A  DS8A8SH   Adapter: 0  ID: 1

Read mode               : Secure
Utilize accurate stream : Yes
Defeat audio cache      : Yes
Make use of C2 pointers : No

Read offset correction                      : 6
Overread into Lead-In and Lead-Out          : No
Fill up missing offset samples with silence : Yes
Delete leading and trailing silent blocks   : No
Null samples used in CRC calculations       : Yes
Used interface                              : Native Win32 interface for Win NT & 2000
Gap handling                                : Appended to previous track

Used output format              : User Defined Encoder
Selected bitrate                : 1024 kBit/s
Quality                         : High
Add ID3 tag                     : No
Command line compressor         : C:\Program Files (x86)\Exact Audio Copy\Flac\flac.exe
Additional command line options : -8 -V -T "ARTIST=%artist%" -T "TITLE=%title%" -T "ALBUM=%albumtitle%" -T "DATE=%year%" -T "TRACKNUMBER=%tracknr%" -T "GENRE=%genre%" -T "PERFORMER=%albuminterpret%" -T "COMPOSER=%composer%" %haslyrics%--tag-from-file=LYRICS="%lyricsfile%"%haslyrics% -T "ALBUMARTIST=%albumartist%" -T "DISCNUMBER=%cdnumber%" -T "TOTALDISCS=%totalcds%" -T "TOTALTRACKS=%numtracks%" -T "COMMENT=%comment%" %source% -o %dest%

TOC of the extracted CD

     Track |   Start  |  Length  | Start sector | End sector
    ---------------------------------------------------------
        1  |  0:00.00 |  3:40.24 |         0    |    16523   
        2  |  3:40.24 |  2:51.31 |     16524    |    29379   
        3  |  6:31.55 |  3:50.68 |     29380    |    46697   
        4  | 10:22.48 |  3:44.43 |     46698    |    63540   
        5  | 14:07.16 |  4:32.12 |     63541    |    83952   
        6  | 18:39.28 |  3:04.38 |     83953    |    97790   
        7  | 21:43.66 |  3:28.14 |     97791    |   113404   
        8  | 25:12.05 |  2:42.47 |    113405    |   125601   
        9  | 27:54.52 |  3:08.42 |    125602    |   139743   
       10  | 31:03.19 |  3:39.10 |    139744    |   156178   
       11  | 34:42.29 |  2:57.13 |    156179    |   169466   
       12  | 37:39.42 |  3:34.13 |    169467    |   185529   
       13  | 41:13.55 |  4:03.45 |    185530    |   203799   
       14  | 45:17.25 |  3:28.22 |    203800    |   219421   

Track  1

     Filename C:\EAC Rips\Fifth Harmony - Reflection (2015) [FLAC]\01 - Fifth Harmony - Top Down.wav

     Pre-gap length  0:00:02.00

     Peak level 100.0 %
     Extraction speed 1.2 X
     Track quality 100.0 %
     Test CRC 44A66126
     Copy CRC 44A66126
     Accurately ripped (confidence 3)  [16AAD643]  (AR v2)
     Copy OK

Track  2

     Filename C:\EAC Rips\Fifth Harmony - Reflection (2015) [FLAC]\02 - Fifth Harmony - Boss.wav

     Peak level 100.0 %
     Extraction speed 1.3 X
     Track quality 100.0 %
     Test CRC 73A75C4F
     Copy CRC 73A75C4F
     Accurately ripped (confidence 3)  [2E303265]  (AR v2)
     Copy OK

Track  3

     Filename C:\EAC Rips\Fifth Harmony - Reflection (2015) [FLAC]\03 - Fifth Harmony - Sledgehammer.wav

     Peak level 100.0 %
     Extraction speed 1.4 X
     Track quality 100.0 %
     Test CRC 4A8D2DEE
     Copy CRC 4A8D2DEE
     Accurately ripped (confidence 3)  [A882CC55]  (AR v2)
     Copy OK

Track  4

     Filename C:\EAC Rips\Fifth Harmony - Reflection (2015) [FLAC]\04 - Fifth Harmony (Feat. Kid Ink) - Worth It.wav

     Peak level 100.0 %
     Extraction speed 1.5 X
     Track quality 100.0 %
     Test CRC C5F1BB0D
     Copy CRC C5F1BB0D
     Accurately ripped (confidence 3)  [6048005D]  (AR v2)
     Copy OK

Track  5

     Filename C:\EAC Rips\Fifth Harmony - Reflection (2015) [FLAC]\05 - Fifth Harmony - This Is How We Roll.wav

     Peak level 99.9 %
     Extraction speed 1.7 X
     Track quality 100.0 %
     Test CRC 28D42429
     Copy CRC 28D42429
     Accurately ripped (confidence 3)  [8D6EE744]  (AR v2)
     Copy OK

Track  6

     Filename C:\EAC Rips\Fifth Harmony - Reflection (2015) [FLAC]\06 - Fifth Harmony - Everlasting Love.wav

     Peak level 100.0 %
     Extraction speed 1.7 X
     Track quality 100.0 %
     Test CRC D268F955
     Copy CRC D268F955
     Accurately ripped (confidence 3)  [08776792]  (AR v2)
     Copy OK

Track  7

     Filename C:\EAC Rips\Fifth Harmony - Reflection (2015) [FLAC]\07 - Fifth Harmony (Feat. Tyga) - Like Mariah.wav

     Peak level 97.6 %
     Extraction speed 1.7 X
     Track quality 100.0 %
     Test CRC 7A8FEBB4
     Copy CRC 7A8FEBB4
     Accurately ripped (confidence 3)  [FEE98DA8]  (AR v2)
     Copy OK

Track  8

     Filename C:\EAC Rips\Fifth Harmony - Reflection (2015) [FLAC]\08 - Fifth Harmony - Them Girls Be Like.wav

     Peak level 99.8 %
     Extraction speed 1.7 X
     Track quality 100.0 %
     Test CRC 346703D4
     Copy CRC 346703D4
     Accurately ripped (confidence 3)  [C47428E2]  (AR v2)
     Copy OK

Track  9

     Filename C:\EAC Rips\Fifth Harmony - Reflection (2015) [FLAC]\09 - Fifth Harmony - Reflection.wav

     Peak level 100.0 %
     Extraction speed 1.6 X
     Track quality 99.9 %
     Test CRC 6BAC359A
     Copy CRC 6BAC359A
     Accurately ripped (confidence 3)  [F990DB0C]  (AR v2)
     Copy OK

Track 10

     Filename C:\EAC Rips\Fifth Harmony - Reflection (2015) [FLAC]\10 - Fifth Harmony - Suga Mama.wav

     Peak level 100.0 %
     Extraction speed 1.7 X
     Track quality 99.9 %
     Test CRC 8D2237C4
     Copy CRC 8D2237C4
     Accurately ripped (confidence 3)  [7A2D20DC]  (AR v2)
     Copy OK

Track 11

     Filename C:\EAC Rips\Fifth Harmony - Reflection (2015) [FLAC]\11 - Fifth Harmony - We Know.wav

     Peak level 100.0 %
     Extraction speed 2.0 X
     Track quality 100.0 %
     Test CRC 82B5C2AA
     Copy CRC 82B5C2AA
     Accurately ripped (confidence 3)  [A70D3655]  (AR v2)
     Copy OK

Track 12

     Filename C:\EAC Rips\Fifth Harmony - Reflection (2015) [FLAC]\12 - Fifth Harmony - Going Nowhere.wav

     Peak level 99.8 %
     Extraction speed 2.1 X
     Track quality 100.0 %
     Test CRC 10540BAB
     Copy CRC 10540BAB
     Accurately ripped (confidence 3)  [FE849D27]  (AR v2)
     Copy OK

Track 13

     Filename C:\EAC Rips\Fifth Harmony - Reflection (2015) [FLAC]\13 - Fifth Harmony - Body Rock.wav

     Peak level 100.0 %
     Extraction speed 2.2 X
     Track quality 100.0 %
     Test CRC 356F7CEF
     Copy CRC 356F7CEF
     Accurately ripped (confidence 3)  [D669AFF9]  (AR v2)
     Copy OK

Track 14

     Filename C:\EAC Rips\Fifth Harmony - Reflection (2015) [FLAC]\14 - Fifth Harmony (Feat. Meghan Trainor) - Brave Honest Beautiful.wav

     Peak level 100.0 %
     Extraction speed 2.2 X
     Track quality 100.0 %
     Test CRC 45483D03
     Copy CRC 45483D03
     Accurately ripped (confidence 3)  [EDE824A2]  (AR v2)
     Copy OK

All tracks accurately ripped

No errors occurred

End of status report

---- CUETools DB Plugin V2.1.3

[CTDB TOCID: M_No8_jweNPC7AhcDHqbI6ZqN4I-] found, Submit result: M_No8_jweNPC7AhcDHqbI6ZqN4I- has been confirmed
[47348f74] (1/4) No match
[aecd41af] (3/4) Accurately ripped

==== Log checksum 84BB2ACF066322A94F865F7E955FA0FCF881559C74BF0E2F360DCE563176473C ====

Код:

REM DATE 2015
REM DISCID B70B6D0E
REM COMMENT "ExactAudioCopy v1.0b3"
PERFORMER "Fifth Harmony"
TITLE "Reflection"
FILE "01 Top Down.flac" WAVE
  TRACK 01 AUDIO
    TITLE "Top Down"
    PERFORMER "Fifth Harmony"
    ISRC USSM11406642
    INDEX 01 00:00:00
FILE "02 Boss.flac" WAVE
  TRACK 02 AUDIO
    TITLE "Boss"
    PERFORMER "Fifth Harmony"
    ISRC USSM11404393
    INDEX 01 00:00:00
FILE "03 Sledgehammer.flac" WAVE
  TRACK 03 AUDIO
    TITLE "Sledgehammer"
    PERFORMER "Fifth Harmony"
    ISRC USSM11406643
    INDEX 01 00:00:00
FILE "04 Worth It (feat. Kid Ink).flac" WAVE
  TRACK 04 AUDIO
    TITLE "Worth It"
    PERFORMER "Fifth Harmony (Feat. Kid Ink)"
    ISRC USSM11406644
    INDEX 01 00:00:00
FILE "05 This Is How We Roll.flac" WAVE
  TRACK 05 AUDIO
    TITLE "This Is How We Roll"
    PERFORMER "Fifth Harmony"
    ISRC USSM11406645
    INDEX 01 00:00:00
FILE "06 Everlasting Love.flac" WAVE
  TRACK 06 AUDIO
    TITLE "Everlasting Love"
    PERFORMER "Fifth Harmony"
    ISRC USSM11406646
    INDEX 01 00:00:00
FILE "07 Like Mariah (feat. Tyga).flac" WAVE
  TRACK 07 AUDIO
    TITLE "Like Mariah"
    PERFORMER "Fifth Harmony (Feat. Tyga)"
    ISRC USSM11406647
    INDEX 01 00:00:00
FILE "08 Them Girls Be Like.flac" WAVE
  TRACK 08 AUDIO
    TITLE "Them Girls Be Like"
    PERFORMER "Fifth Harmony"
    ISRC USSM11406648
    INDEX 01 00:00:00
FILE "09 Reflection.flac" WAVE
  TRACK 09 AUDIO
    TITLE "Reflection"
    PERFORMER "Fifth Harmony"
    ISRC USSM11406649
    INDEX 01 00:00:00
FILE "10 Suga Mama.flac" WAVE
  TRACK 10 AUDIO
    TITLE "Suga Mama"
    PERFORMER "Fifth Harmony"
    ISRC USSM11406650
    INDEX 01 00:00:00
FILE "11 We Know.flac" WAVE
  TRACK 11 AUDIO
    TITLE "We Know"
    PERFORMER "Fifth Harmony"
    ISRC USSM11406651
    INDEX 01 00:00:00
FILE "12 Going Nowhere.flac" WAVE
  TRACK 12 AUDIO
    TITLE "Going Nowhere"
    PERFORMER "Fifth Harmony"
    ISRC USSM11406652
    INDEX 01 00:00:00
FILE "13 Body Rock.flac" WAVE
  TRACK 13 AUDIO
    TITLE "Body Rock"
    PERFORMER "Fifth Harmony"
    ISRC USSM11406653
    INDEX 01 00:00:00
FILE "14 Brave Honest Beautiful (feat. Meghan Trainor).flac" WAVE
  TRACK 14 AUDIO
    TITLE "Brave Honest Beautiful"
    PERFORMER "Fifth Harmony (Feat. Meghan Trainor)"
    ISRC USSM11406654
    INDEX 01 00:00:00

Этот торрент недоступен для скачивания без регистрации, однако доступен по публичной magnet-ссылке (источники с публичных трекеров). Перед использованием ссылки прочтите, пожалуйста Пользовательское соглашение, а также как можно дольше оставайтесь на раздаче! Для того, чтобы скачать сам торрент-файл (который видит больше источников), а также для того, чтобы поблагодарить релизера, вам необходимо зарегистрироваться. Если регистрироваться лень - вы можете также попробовать скачать релиз по нашим партнерским ссылкам ниже.

[underverse.su].t71982.torrent
Трекер: Зарегистрирован   [ 03.11.2016 05:48 ]  

Статус: проверено (by Бишеп at 03.11.2016 05:48)
Поблагодарили: пока никто не поблагодарил...
Тип торрента: публичный - доступные источники с открытых трекеров: 
Размер: 363 MB (занимает 0,08 DVDR, для записи нужно 1 болванка DVDR/RW)
 
 
Похожие темы
Форум Тема Автор Торрент Отв. Посл. сооб.
Зарубежный R'n'B (Lossless) (R'n'B, Pop, Soul) Emeli Sande (Sande) - Our Version Of Events: Live At The Royal Albert Hall (2013) [FLAC (Image+.Cue), Lossless] Бишеп
3 | 0

0 | 535

1

20.11.2016 14:17

Зарубежный R'n'B (Lossless) (R'n'B, Pop, Soul) Emeli Sande - Our Version of Events (2012) [FLAC (Tracks+.Cue), Lossless] Бишеп
5 | 18

0 | 464

1

07.11.2016 17:07

Зарубежный R'n'B (Lossless) (R'n'B, Pop, Soul) Bruno Mars - Unorthodox Jukebox (Target Deluxe Edition) (2012) [FLAC (Tracks+.Cue), lossless] Бишеп
5 | 7

0 | 787

2

07.11.2016 16:59

Зарубежный R'n'B (Lossless) (R'n'B, Pop) Bruno Mars - Doo-Wops & Hooligans (2010) [FLAC (Tracks+.CUE), Lossless] Бишеп
3 | 1

0 | 2140

5

04.11.2013 10:53

Зарубежный R'n'B (Lossless) (R'n'B, Pop, Hip Hop) Nelly Furtado - The Best Of (Deluxe Edition 2CD) (2010) [FLAC (Image+.CUE), Lossless] Бишеп
9 | 2

0 | 1976

5

08.01.2014 14:03

Зарубежный R'n'B (Lossless) (R'n'B, Pop, Soul) Sam Smith - In The Lonely Hour (Target Deluxe Edition) (2014) [FLAC (Tracks+.CUE), Lossless] Бишеп
10 | 3

0 | 1606

4

27.10.2014 20:17

Зарубежный R'n'B (Lossless) (R'n'B, Pop) Naughty Boy feat. Sam Smith - La La La (Promo CD) (2013) [FLAC (Image+.CUE), Lossless] Бишеп
2 | 0

0 | 803

2

07.02.2015 07:09

Зарубежный R'n'B (Lossless) (R'n'B, Pop) Fifth Harmony - 7/27 (Deluxe Edition) (2016) [FLAC (Tracks), Lossless] Web Бишеп
1 | 5

0 | 710

1

03.11.2016 05:56

Зарубежный R'n'B (Lossless) (R'n'B, Pop, Soul) Emeli Sande - Long Live The Angels (2016) [FLAC (Image+.Cue), Lossless] Бишеп
1 | 0

0 | 752

1

17.11.2016 04:42

* Архив (R'n'B, Pop) Ради Славы - Будем счастливыми (2008) [MP3, CBR 320 kbps] EugeneShad

2 | 1336

30.08.2010 01:31


Яндекс.Метрика powered by Sphinx


В Н И М А Н И Е
Сайт не распространяет и не хранит электронные версии произведений, а лишь бесплатно и без коммерческой выгоды (не требуя взамен платы,
SMS и т.д.) предоставляет доступ к создаваемому пользователями каталогу ссылок на торрент-файлы, которые содержат только списки хеш-сумм.
Убедительная просьба с жалобами обращаться напрямую к пользователю, разместившему торрент файл.

Вверх