Loading...
Error

(OST) VA - Брат 2 (2002) [FLAC (Tracks+.CUE), Lossless]

Статистика раздачи
Размер:  411 MB   |    Зарегистрирован:  1 год 5 месяцев   |    Скачан:  3 раза
Сидов:  1  |  0 KB/s  ]   Личеров:  0  |  0 KB/s  ]

* - сиды/пиры с внешних источников

   
 
Автор Сообщение

Бишеп Пол:Муж

31-Авг-2016 12:34

VA - Брат 2

Жанр: OST
Год выпуска: 2002
Источник: CD
Производитель диска: Real Records - RR-044-CD
Аудиокодек: FLAC
Тип рипа: Tracks+.CUE
Битрейт аудио: lossless
Продолжительность: 00:58:43


Треклист:
01. Би-2 - Полковник (04:57)
02. Маша и Медведи - Земля (05:25)
03. АукцЫон - Дорога (03:23)
04. Агата Кристи - Секрет (03:01)
05. Zемфира - Искала (03:43)
06. Сплин - Линия жизни (03:00)
07. Ла-Манш - Погляд (05:58)
08. Крематорий - Катманду (03:50)
09. Танцы Минус - Иду (03:43)
10. Чичерина - ТуЛуЛа (02:27)
11. Вячеслав Бутусов - Гибралтар/Лабрадор (04:13)
12. Океан Ельзи - Коли тебе нема (03:19)
13. Смысловые галлюцинации - Вечно Молодой (03:40)
14. Вадим Самойлов - Никогда (04:48)
15. Детская хоровая студия "Преображение" - Прощальное письмо (03:16)

Код:

Exact Audio Copy V1.0 beta 3 from 29. August 2011

EAC extraction logfile from 17. December 2011, 0:25

Various Artists / Брат 2

Used drive  : Optiarc DVD RW AD-7260S   Adapter: 3  ID: 0

Read mode               : Secure
Utilize accurate stream : Yes
Defeat audio cache      : Yes
Make use of C2 pointers : No

Read offset correction                      : 48
Overread into Lead-In and Lead-Out          : No
Fill up missing offset samples with silence : Yes
Delete leading and trailing silent blocks   : No
Null samples used in CRC calculations       : Yes
Used interface                              : Native Win32 interface for Win NT & 2000
Gap handling                                : Appended to previous track

Used output format              : User Defined Encoder
Selected bitrate                : 1024 kBit/s
Quality                         : High
Add ID3 tag                     : No
Command line compressor         : C:\Program Files\foobar2000\flac-1.2.1-win\bin\flac.exe
Additional command line options : -8 -V -T "ARTIST=%artist%" -T "TITLE=%title%" -T "ALBUM=%albumtitle%" -T "DATE=%year%" -T "TRACKNUMBER=%tracknr%" -T "GENRE=%genre%" -T "PERFORMER=%albuminterpret%" -T "COMPOSER=%composer%" %haslyrics%--tag-from-file=LYRICS="%lyricsfile%"%haslyrics% -T "ALBUMARTIST=%albumartist%" -T "DISCNUMBER=%cdnumber%" -T "TOTALDISCS=%totalcds%" -T "TOTALTRACKS=%numtracks%" -T "COMMENT=%comment%" %source% -o %dest%

TOC of the extracted CD

     Track |   Start  |  Length  | Start sector | End sector
    ---------------------------------------------------------
        1  |  0:00.00 |  4:56.57 |         0    |    22256   
        2  |  4:56.57 |  5:24.39 |     22257    |    46595   
        3  | 10:21.21 |  3:23.10 |     46596    |    61830   
        4  | 13:44.31 |  3:00.56 |     61831    |    75386   
        5  | 16:45.12 |  3:42.46 |     75387    |    92082   
        6  | 20:27.58 |  2:59.28 |     92083    |   105535   
        7  | 23:27.11 |  5:57.17 |    105536    |   132327   
        8  | 29:24.28 |  3:49.55 |    132328    |   149557   
        9  | 33:14.08 |  3:42.22 |    149558    |   166229   
       10  | 36:56.30 |  2:27.21 |    166230    |   177275   
       11  | 39:23.51 |  4:12.74 |    177276    |   196249   
       12  | 43:36.50 |  3:19.08 |    196250    |   211182   
       13  | 46:55.58 |  3:40.09 |    211183    |   227691   
       14  | 50:35.67 |  4:47.54 |    227692    |   249270   
       15  | 55:23.46 |  3:15.46 |    249271    |   263941   

Track  1

     Filename D:\Music\EAC Rips\Various Artists - Брат 2 (2002) [FLAC]\01 - Би-2 - Полковник.wav

     Pre-gap length  0:00:02.00

     Peak level 94.2 %
     Extraction speed 2.6 X
     Track quality 100.0 %
     Test CRC D82A0E63
     Copy CRC D82A0E63
     Accurately ripped (confidence 5)  [48879E13]  (AR v1)
     Copy OK

Track  2

     Filename D:\Music\EAC Rips\Various Artists - Брат 2 (2002) [FLAC]\02 - Маша и Медведи - Земля.wav

     Peak level 94.2 %
     Extraction speed 3.0 X
     Track quality 100.0 %
     Test CRC 4A993737
     Copy CRC 4A993737
     Accurately ripped (confidence 8)  [964EB1D6]  (AR v1)
     Copy OK

Track  3

     Filename D:\Music\EAC Rips\Various Artists - Брат 2 (2002) [FLAC]\03 - АукцЫон - Дорога.wav

     Peak level 94.2 %
     Extraction speed 3.0 X
     Track quality 100.0 %
     Test CRC A2DC6FB7
     Copy CRC A2DC6FB7
     Accurately ripped (confidence 8)  [DDC8BA57]  (AR v1)
     Copy OK

Track  4

     Filename D:\Music\EAC Rips\Various Artists - Брат 2 (2002) [FLAC]\04 - Агата Кристи - Секрет.wav

     Peak level 94.2 %
     Extraction speed 3.1 X
     Track quality 100.0 %
     Test CRC EC2BB576
     Copy CRC EC2BB576
     Accurately ripped (confidence 8)  [D4526C19]  (AR v1)
     Copy OK

Track  5

     Filename D:\Music\EAC Rips\Various Artists - Брат 2 (2002) [FLAC]\05 - Zемфира - Искала.wav

     Peak level 94.2 %
     Extraction speed 3.3 X
     Track quality 100.0 %
     Test CRC 2D01B8A4
     Copy CRC 2D01B8A4
     Accurately ripped (confidence 7)  [F8299855]  (AR v1)
     Copy OK

Track  6

     Filename D:\Music\EAC Rips\Various Artists - Брат 2 (2002) [FLAC]\06 - Сплин - Линия жизни.wav

     Peak level 94.2 %
     Extraction speed 3.4 X
     Track quality 100.0 %
     Test CRC F1897FC9
     Copy CRC F1897FC9
     Accurately ripped (confidence 8)  [00AEEA48]  (AR v1)
     Copy OK

Track  7

     Filename D:\Music\EAC Rips\Various Artists - Брат 2 (2002) [FLAC]\07 - Ла-Манш - Погляд.wav

     Peak level 94.2 %
     Extraction speed 3.5 X
     Track quality 99.9 %
     Test CRC E07735C4
     Copy CRC E07735C4
     Accurately ripped (confidence 6)  [7A3F1924]  (AR v1)
     Copy OK

Track  8

     Filename D:\Music\EAC Rips\Various Artists - Брат 2 (2002) [FLAC]\08 - Крематорий - Катманду.wav

     Peak level 94.2 %
     Extraction speed 3.4 X
     Track quality 99.9 %
     Test CRC A00667BA
     Copy CRC A00667BA
     Accurately ripped (confidence 8)  [FDE20740]  (AR v1)
     Copy OK

Track  9

     Filename D:\Music\EAC Rips\Various Artists - Брат 2 (2002) [FLAC]\09 - Танцы Минус - Иду.wav

     Peak level 91.0 %
     Extraction speed 3.9 X
     Track quality 100.0 %
     Test CRC 8EB60ACC
     Copy CRC 8EB60ACC
     Accurately ripped (confidence 8)  [281613F1]  (AR v1)
     Copy OK

Track 10

     Filename D:\Music\EAC Rips\Various Artists - Брат 2 (2002) [FLAC]\10 - Чичерина - ТуЛуЛа.wav

     Peak level 94.2 %
     Extraction speed 3.8 X
     Track quality 100.0 %
     Test CRC 32DDE3FE
     Copy CRC 32DDE3FE
     Accurately ripped (confidence 8)  [D10D75FC]  (AR v1)
     Copy OK

Track 11

     Filename D:\Music\EAC Rips\Various Artists - Брат 2 (2002) [FLAC]\11 - Вячеслав Бутусов - Гибралтар,Лабрадор.wav

     Peak level 93.2 %
     Extraction speed 3.8 X
     Track quality 99.9 %
     Test CRC 4ECB4D4B
     Copy CRC 4ECB4D4B
     Accurately ripped (confidence 6)  [C3D93AE4]  (AR v1)
     Copy OK

Track 12

     Filename D:\Music\EAC Rips\Various Artists - Брат 2 (2002) [FLAC]\12 - Океан Ельзи - Коли тебе нема.wav

     Peak level 98.7 %
     Extraction speed 4.2 X
     Track quality 100.0 %
     Test CRC 7F0AC3EE
     Copy CRC 7F0AC3EE
     Accurately ripped (confidence 7)  [822AE46D]  (AR v1)
     Copy OK

Track 13

     Filename D:\Music\EAC Rips\Various Artists - Брат 2 (2002) [FLAC]\13 - Смысловые галлюцинации - Вечно молодой.wav

     Peak level 98.7 %
     Extraction speed 3.9 X
     Track quality 99.9 %
     Test CRC 9075A095
     Copy CRC 9075A095
     Accurately ripped (confidence 7)  [AB8B755D]  (AR v1)
     Copy OK

Track 14

     Filename D:\Music\EAC Rips\Various Artists - Брат 2 (2002) [FLAC]\14 - Вадим Самойлов - Никогда.wav

     Peak level 100.0 %
     Extraction speed 4.8 X
     Track quality 100.0 %
     Test CRC 51FF1C28
     Copy CRC 51FF1C28
     Accurately ripped (confidence 7)  [D61CFA62]  (AR v1)
     Copy OK

Track 15

     Filename D:\Music\EAC Rips\Various Artists - Брат 2 (2002) [FLAC]\15 - Детская хоровая студия ''Преображение'' - Прощальное письмо.wav

     Peak level 98.5 %
     Extraction speed 4.7 X
     Track quality 100.0 %
     Test CRC 7C6C10C6
     Copy CRC 7C6C10C6
     Accurately ripped (confidence 8)  [74A7D9E8]  (AR v1)
     Copy OK

All tracks accurately ripped

No errors occurred

End of status report

---- CUETools DB Plugin V2.1.3

[CTDB TOCID: dcbOb81gHaGprCxp2EGnz_9aNdw-] found, Submit result: dcbOb81gHaGprCxp2EGnz_9aNdw- has been confirmed
[ffd4b325] (5/5) Accurately ripped

==== Log checksum 603F99932C14EBDC41F899BCD3375B6A16F342D5559644C24A12AEEEB8388798 ====

Код:

REM DATE 2002
REM DISCID DB0DBF0F
REM COMMENT "ExactAudioCopy v1.0b3"
PERFORMER "Various Artists"
TITLE "Брат 2"
FILE "01 - Би-2 - Полковник.wav" WAVE
  TRACK 01 AUDIO
    TITLE "Полковник"
    PERFORMER "Би-2"
    INDEX 01 00:00:00
FILE "02 - Маша и Медведи - Земля.wav" WAVE
  TRACK 02 AUDIO
    TITLE "Земля"
    PERFORMER "Маша и Медведи"
    INDEX 01 00:00:00
FILE "03 - АукцЫон - Дорога.wav" WAVE
  TRACK 03 AUDIO
    TITLE "Дорога"
    PERFORMER "АукцЫон"
    INDEX 01 00:00:00
FILE "04 - Агата Кристи - Секрет.wav" WAVE
  TRACK 04 AUDIO
    TITLE "Секрет"
    PERFORMER "Агата Кристи"
    INDEX 01 00:00:00
FILE "05 - Zемфира - Искала.wav" WAVE
  TRACK 05 AUDIO
    TITLE "Искала"
    PERFORMER "Zемфира"
    INDEX 01 00:00:00
FILE "06 - Сплин - Линия жизни.wav" WAVE
  TRACK 06 AUDIO
    TITLE "Линия жизни"
    PERFORMER "Сплин"
    INDEX 01 00:00:00
FILE "07 - Ла-Манш - Погляд.wav" WAVE
  TRACK 07 AUDIO
    TITLE "Погляд"
    PERFORMER "Ла-Манш"
    INDEX 01 00:00:00
FILE "08 - Крематорий - Катманду.wav" WAVE
  TRACK 08 AUDIO
    TITLE "Катманду"
    PERFORMER "Крематорий"
    INDEX 01 00:00:00
FILE "09 - Танцы Минус - Иду.wav" WAVE
  TRACK 09 AUDIO
    TITLE "Иду"
    PERFORMER "Танцы Минус"
    INDEX 01 00:00:00
FILE "10 - Чичерина - ТуЛуЛа.wav" WAVE
  TRACK 10 AUDIO
    TITLE "ТуЛуЛа"
    PERFORMER "Чичерина"
    INDEX 01 00:00:00
FILE "11 - Вячеслав Бутусов - Гибралтар,Лабрадор.wav" WAVE
  TRACK 11 AUDIO
    TITLE "Гибралтар/Лабрадор"
    PERFORMER "Вячеслав Бутусов"
    INDEX 01 00:00:00
FILE "12 - Океан Ельзи - Коли тебе нема.wav" WAVE
  TRACK 12 AUDIO
    TITLE "Коли тебе нема"
    PERFORMER "Океан Ельзи"
    INDEX 01 00:00:00
FILE "13 - Смысловые галлюцинации - Вечно молодой.wav" WAVE
  TRACK 13 AUDIO
    TITLE "Вечно молодой"
    PERFORMER "Смысловые галлюцинации"
    INDEX 01 00:00:00
FILE "14 - Вадим Самойлов - Никогда.wav" WAVE
  TRACK 14 AUDIO
    TITLE "Никогда"
    PERFORMER "Вадим Самойлов"
    INDEX 01 00:00:00
FILE "15 - Детская хоровая студия ''Преображение'' - Прощальное письмо.wav" WAVE
  TRACK 15 AUDIO
    TITLE "Прощальное письмо"
    PERFORMER "Детская хоровая студия 'Преображение'"
    INDEX 01 00:00:00

Код:

-----------------------

DON'T MODIFY THIS FILE

-----------------------

PERFORMER: auCDtect Task Manager, ver. 1.6.0 RC1 build 1.6.0.1
Copyright (c) 2008-2010 y-soft. All rights reserved
http://y-soft.org

ANALYZER: auCDtect: CD records authenticity detector, version 0.8.2
Copyright (c) 2004 Oleg Berngardt. All rights reserved.
Copyright (c) 2004 Alexander Djourik. All rights reserved.

FILE: 15 - Детская хоровая студия ''Преображение'' - Прощальное письмо.flac
  Size: 15571101 Hash: BBD7C3E2D1695FEAB2D6824EDEAC5E12 Accuracy: -m8
  Conclusion: CDDA 100%
  Signature: 7DD1153BD31D78A2BAE90AAA991E39BD4F5C597D
FILE: 14 - Вадим Самойлов - Никогда.flac
  Size: 37438694 Hash: 92CE625B77E83C56F6A316C45F985D9E Accuracy: -m8
  Conclusion: CDDA 100%
  Signature: A704F7527CA448C5000A9E93CC8B3EF129EC64DC
FILE: 13 - Смысловые галлюцинации - Вечно молодой.flac
  Size: 27299390 Hash: ADF689183C0F36EF7A02F47C62EC9D99 Accuracy: -m8
  Conclusion: CDDA 100%
  Signature: 6E263C262574620759BDEB8BAC2C2AFB68D2890A
FILE: 12 - Океан Ельзи - Коли тебе нема.flac
  Size: 24883558 Hash: E09DE3102187DD16F2D168B7C5E144B2 Accuracy: -m8
  Conclusion: CDDA 100%
  Signature: 35E8ED724F30DCE5F79C1B3D154D47B872468D44
FILE: 11 - Вячеслав Бутусов - Гибралтар,Лабрадор.flac
  Size: 29352853 Hash: 5F7DED20944A742F1FAAAA0376CEA7EA Accuracy: -m8
  Conclusion: CDDA 100%
  Signature: 0A4E0C1A53A44803EE3E8A4AC8AE56ED15734B84
FILE: 10 - Чичерина - ТуЛуЛа.flac
  Size: 19899172 Hash: AEA31D64759C732BE292A215A752992A Accuracy: -m8
  Conclusion: CDDA 100%
  Signature: 6FADD3850E9F131E1A16A49D65824C507037A060
FILE: 09 - Танцы Минус - Иду.flac
  Size: 28184795 Hash: E8CB75D26E477EBA0260F25C992367CA Accuracy: -m8
  Conclusion: CDDA 100%
  Signature: 09E07172E4B35CE70F02A53E43F2FC6B098FFBDD
FILE: 08 - Крематорий - Катманду.flac
  Size: 28308333 Hash: 74BF7569303E2DE033F79160277324BA Accuracy: -m8
  Conclusion: CDDA 100%
  Signature: 79FC7806B4D1A9CC2DBFC5B1E8E5D7AC02186B98
FILE: 07 - Ла-Манш - Погляд.flac
  Size: 45492928 Hash: 719AB9AE9C7F9F0F99D016DB8DC74EFC Accuracy: -m8
  Conclusion: CDDA 100%
  Signature: 31816C6A22BD788FC6934A39C94F602C88A0FDA0
FILE: 06 - Сплин - Линия жизни.flac
  Size: 21033965 Hash: 88E7ADC189FEAF320EE6AF1141A5DCA4 Accuracy: -m8
  Conclusion: CDDA 100%
  Signature: 85852089C1DB5F0FA50AE2451A60E1C13FBA823F
FILE: 05 - Zемфира - Искала.flac
  Size: 26954919 Hash: E37E902F3C8756DD173ED638182F58CE Accuracy: -m8
  Conclusion: CDDA 100%
  Signature: 10D019D6C548658CD68CF6B604FBB53FC7BD3D6D
FILE: 04 - Агата Кристи - Секрет.flac
  Size: 24394751 Hash: DEFE3E6BEE4ED77C1217F8C81323BB3B Accuracy: -m8
  Conclusion: CDDA 100%
  Signature: 500BCB62749C25E7DDF41E5B9A15CB757AAAB573
FILE: 03 - АукцЫон - Дорога.flac
  Size: 23091875 Hash: AEAA46727C2825208F83E6535094342F Accuracy: -m8
  Conclusion: MPEG 95%
  Signature: 5553D7DE0E3CC3CB78DBCFC96B0310FC298C48D7
FILE: 02 - Маша и Медведи - Земля.flac
  Size: 40559527 Hash: FFF4DAF27BFF81ACF41F1295602A17D5 Accuracy: -m8
  Conclusion: CDDA 100%
  Signature: 0D610AF76D480061811536F083DEBE5AD52AC878
FILE: 01 - Би-2 - Полковник.flac
  Size: 38867969 Hash: 4CEABE27DD7E981C2A1392493435D4EE Accuracy: -m8
  Conclusion: CDDA 100%
  Signature: C9DAEB7BE2A96CC9D54574049B1C082A60853E34
pic
Для увеличения картинки щелкните мышкой по превью


Этот торрент недоступен для скачивания без регистрации, однако доступен по публичной magnet-ссылке (источники с публичных трекеров). Перед использованием ссылки прочтите, пожалуйста Пользовательское соглашение, а также как можно дольше оставайтесь на раздаче! Для того, чтобы скачать сам торрент-файл (который видит больше источников), а также для того, чтобы поблагодарить релизера, вам необходимо зарегистрироваться. Если регистрироваться лень - вы можете также попробовать скачать релиз по нашим партнерским ссылкам ниже. Кроме того, зарегистрированным пользователям не показывается всплывающая реклама при скачивании.

[underverse.su].t70350.torrent
Трекер: Зарегистрирован   [ 22.09.2016 05:35 ]  

Статус: проверено (by Бишеп at 22.09.2016 09:08)
Поблагодарили: пока никто не поблагодарил...
Тип торрента: публичный - доступные источники с открытых трекеров: 
Размер: 411 MB (занимает 0,09 DVDR, для записи нужно 1 болванка DVDR/RW)
 
 
Похожие темы
Форум Тема Автор Торрент Отв. Посл. сооб.
OST & Score - Movie (OST) VA - Достучаться до небес / Knockin' On Heaven's Door (1997) [MP3, 320 kbps] garry
5 | 0

0 | 3151

15

31.07.2009 15:19

OST & Score - Movie (OST) VA - Страх и ненависть в Лас-Вегасе / Fear And Loathing in Las Vegas (1998) [MP3, 320 kbps] M-i-i-i-ke
10 | 0

2 | 3265

4

27.06.2014 20:42

OST & Score - Movie (OST) VA - Best of Bond... James Bond (50 Years - 50 Tracks) (2012) [iTunes AAC M4A, 256 kbps VBR] Web garry
9 | 0

0 | 2892

2

08.03.2010 20:08

OST & Score - Movie (OST) VA - Всегда говори ДА / Yes Man (2008) [MP3, 320 kbps] БогDan
3 | 0

3 | 2102

0

28.06.2014 15:58

# OST & Score - Movie (OST) VA - Школа рока / School of Rock (2003) [iTunes AAC M4A, 256 kbps VBR] Web garry
1 | 5

0 | 3066

2

03.06.2009 18:03

OST & Score - Movie (OST) VA - Большой Куш / Snatch (2000) [MP3, 320 kbps] M-i-i-i-ke
30 | 0

2 | 2527

7

03.12.2013 10:54

OST & Score - Movie (OST) VA - Загадочная история Бенджамина Баттона / Curious Case of Benjamin Button (2008) [MP3, 320 kbps] M-i-i-i-ke
2 | 2

2 | 1889

2

28.06.2014 00:23

OST & Score - Movie (OST) VA - Карты, деньги, два ствола / Lock, Stock and Two Smoking Barrels (1998) [MP3, 320 kbps] M-i-i-i-ke
21 | 0

3 | 2103

9

28.06.2014 00:17

OST & Score - Movie (OST) VA - Рок-волна / Boat That Rocked (2009) [MP3, 320 kbps] garry
23 | 0

0 | 2283

10

20.06.2009 18:05

OST & Score - Movie (OST) VA - Каратель | Территория войны / Punisher | War Zone (2004, 2008) [iTunes AAC M4A, 256 kbps VBR] Web garry
1 | 1

0 | 2942

0

21.06.2009 22:07



Последний раз редактировалось: Бишеп (22.09.2016 05:35), всего редактировалось 2 раз(а)

Яндекс.Метрика powered by Sphinx


В Н И М А Н И Е
Сайт не распространяет и не хранит электронные версии произведений, а лишь бесплатно и без коммерческой выгоды (не требуя взамен платы,
SMS и т.д.) предоставляет доступ к создаваемому пользователями каталогу ссылок на торрент-файлы, которые содержат только списки хеш-сумм.
Убедительная просьба с жалобами обращаться напрямую к пользователю, разместившему торрент файл.

Вверх